&title=OOO
&artist=Ryu☆ feat.moimoi
&first=-0.05
&des_5=OmoOmoO
&lv_5=13+
&des=OmoOmoO
&inote_5=(140){1},
{8}1b<5[4:1],,5>1[4:1],,1<5[4:1],,,,7p6[4:1],,,,4q5[4:1],,,,
8b>4[4:1],,4<8[4:1],,8>4[4:1],,,,2q3[4:1],,,,5p4[4:1],,,,
1b<5[4:1],,5>1[4:1],,1<5[4:1],,,,7p6[4:1],,,4,4q5[4:1],,,,
8b>4[4:1],,4<8[4:1],,8<4[4:1],,2,2,,1,8,7q1[4:1],,,,,
2bq6[8:1],,1^6[8:1],,2>5[8:1],,7^4[8:1],7,,3h[2:1],2,1,8,7,6,5,
4bq8[8:1],,3^8[8:1],,4^7[8:1],,1^6[8:1],1,,5h[2:1],4,3,2,1,8,7,
6bq2[8:1],,5^2[8:1],,6<1[8:1],,3^8[8:1],3,,7h[2:1],6,5,4,3,2,1,
8bq4[8:1],,7^4[8:1],,8^3[8:1],,5^2[8:1],5,,1h[4:1],,8h[4:1],2,1,8,7,
6/5bqq2[8:3],,7,,8,,1qq6[8:3],,2,,3,,4qq1[8:3],,5<8[8:1],5,5,,2q5[4:1],,5,,6,,
7/8p3[8:1],,78,,2/1q6[8:1],,21,2,
2pp5[8:3],,5,,6,,7pp2[8:3],,5,,4,,3pp6[8:3],,2^7[8:1],2,2,,4p1[4:1],,6,,7,,1h[4:1]/8,,2>8[8:2],,,2,2,2,
1b>5[4:1],,5<1[4:1],,1>5[4:1],,6,7q3[16:3],,3q7[16:3],1,7q3[16:3],1,3q7[16:3],1,7,
8b<4[4:1],,4>8[4:1],,8<4[4:1],,3,2p6[16:3],,6p2[16:3],8,2p6[16:3],8,6p2[16:3],8,2,
1b>5[4:1],,5<1[4:1],,1>5[4:1],,6,7q3[16:3],,3q7[16:3],1,7q3[16:3],1,3q7[16:3],1,7,
8b<4[4:1],,4>8[4:1],,8<4[4:1],,3,2h[4:1],,1,8,7,6,5,4,3,
1/2b,3,4,5,4/6,5,4,3,1/2,8,7,6,56,7,8,1,2/3,4,5,6,57,8,46,7,2^4[8:1]/5,2,1,8,7^5[8:1],7,8,1,
1/2b,3,4,5,4/6^8[8:1],4,3,2,1/2^4[8:1],1,8,7,5/6^4[8:1],7,8,1,2^8[8:1]/3,4,5,6,57,8,46,7,5^8[8:1]/2,5,4,3,2^5[8:1],1,8,7,
8b>4[4:1],,4<8[4:1],,8>3[4:1],,4>5[4:2],4,,4,3,2,1,8,7,6,
4b<8[4:1],,8>4[4:1],,4<7[4:1],,8<1[4:2],8,,8,7,6,5,4,3,2,
1bp3[8:1]/5p7[8:1],,15,,1p7[4:1],,5<4[4:2],5,,5,6,7,8,1,2,3,
5bp7[8:1]/1p3[8:1],,15,,5p3[4:1],,1>8[8:3],1,,1b,2b,3b,,48,37,26,
1b>4[8:1]/5b<8[8:1],,1p3[8:1]/5p7[8:1],,1p7[16:4],,1,6>2[4:1],,2<6[4:1],1b,6p4[4:1],4b,2,8b,,
8b<5[8:1]/4b>1[8:1],,8q6[8:1]/4q2[8:1],,8q2[16:4],,8,3<7[4:1],,7>3[4:1],8b,3q5[4:1],5b,7,1b,,
4b>1[8:1]/8b<5[8:1],,4q2[8:1]/8q6[8:1],,4q6[16:4],,4,7>3[4:1],,3<7[4:1],4b,7q1[4:1],1b,3,5b,,
5b<8[8:1]/1b>4[8:1],,5p7[8:1]/1p3[8:1],,5p3[16:4],,5b,2bp8[4:1],,8b,7b,6b,45,2,34,1,
2b^5[8:1],,7b^2[8:1]/2b,,3q5[4:1],4,5,6,7bq8[4:1],6,7bq1[4:1],6,7bq2[4:1],6,7b,6,
5b^8[8:1],,2b^5[8:1]/5b,,6q8[4:1],7,8,1,2bp1[4:1],3,2bp8[4:1],3,2bp7[4:1],3,2b,3,
4b^1[8:1],,7b^4[8:1]/4b,,1p7[4:1],8,7,6,5bp4[4:1],6,5bp3[4:1],6,5bp2[4:1],6,5b,6,
7b^2[8:1],,4b^7[8:1]/7b,,8q2[4:1],1,2,3,4bq5[4:1],3,4bq6[4:1],3,4bq7[4:1],3,4b,3,3bq6[4:3]*<3[4:3],
E
