&title=Tik[Q]et
&artist=Giga & TeddyLoid feat 内田真礼&konoco&秋奈
&first=0
&des=woxxow
&lv_5=13
&inote_1=
&inote_5=(125)
{1},
{8}3h[1:2],,4,,,,4,,
{8},,4,,,,4,,
{8}6h[1:2],,5,,,,5,,
{8},,5,,,,5,,
{8}2h[8:15],,1,,,,1,,
{8},,1,,,,1-5[8:1],8,
{8}17,6-4[8:1],,36,3h[8:1],,3/5-2[8:1],,
{8}56,7-3[8:1],,7/1<5[4:1]*>5[4:1],,,,,
{8}3b/7b,,6h[8:1]/4,3,4-1[8:1],3/7h[8:1],4,6,
{8}52,6,7/3h[8:1],6,5-8[8:1],2h[8:1]/6,5,{16}3,2,
{8}17,7h[8:1],{16}4,6,3,5,{8}1,26,37,{16}4,5,
{12}3,3,3,6,6,6,{8}5-1[8:1]/6-2[8:1],47,56,,
{16},7,8,7,1h[8:1],,6,1,7-3[8:1],,3-7[8:1],,,,,,
{16},2,1,2,8h[8:1],,3,8,2,,6,,4>1[8:1],5,3,,
{8}4/6,,5-8[8:1],5,5-2[8:1]/3,,7/5<4[8:7],,
{16}1h[16:1],,,,2qq6[8:3],,2,,,,,,,,,,
{16}3b/5h[8:7],,,,4h[8:1],,,,4h[8:1],,,3h[8:1],,,2,,
{16}8/1h[8:7],,,,8h[8:1],,,,8h[8:1],,,7h[8:1],,,6,,
{16}4/5h[8:7],,,,4h[8:1],,,,4h[8:1],,,3h[8:1],,,2,,
{8}1-5[8:1],28,1,,8-4[8:1],17,8,,
{16}35,,6,5,7,,56,,3,4,3,4,3,,5,,
{16}64,,3,4,2,,43,,6,5,6,5,6,,4,,
{16}4,8,4,8,3,7,3,7,2,6,2,6,1-5[8:1],5,1,5,
{8}1/5V38[4:1]*V72[4:1],,,,,,1b-6[8:1]*-4[8:1],,
{16}1,,,3,7-4[8:1],,8/4-8[8:1],,3/7,,2-5[8:1],,1,,2,,
{16}8h[4:1],,5,,6,,4>1[8:1],,84,,{24}8,7,6,{16}5,,1,,
{16}37,,,6,2-5[8:1],,1/5-1[8:1],,6/2,,7-4[8:1],,8,,7,,
{16}2>5[8:1],,5,,{24}5,6,7,{16}8,,7v4[8:1]/3v8[8:1],,62,,37,,,,
{8}5v2[8:1]*v8[8:1],,5b,,{16}7/1-5[8:1],,8,2,1,3h[16:3],,,
{16}4>1[8:1],5,6,,4,,6,7,8-4[8:1],,1,7,8,6h[16:3],,,
{24}5<8[8:1],4,3,2h[8:1],,,5b,,,3,,,4<8[8:1],3,2,1h[8:1],,,4b,,,,,,
{8}71,6,25,3,5-8[8:1]/4h[4:1],,5b>5[4:3],,
{8}7h[12:1],,6h[12:1],,5-1[8:1],,,,
{8}82,,73,,6h[8:1]/4-2[8:1],4,,8,
{8}17,7,26,6,3-5[8:1]/5,5-2[8:1],,6,
{8}6,78,3,12,5,68,4,13,
{8}82,71,86,71,8<5[8:1]/3>8[8:1],,,,
{8}46,,37,7,2/8-6[8:1],82,,4,
{8}53,3,62,2,7-1[8:1]/1,7/1-6[8:1],,2,
{8}2,34,7,56,1,24,8,57,
{16}47,47,,4,6,3,,54,4s8[8:1]/5z1[8:1],,,,,,,,
{16}3b/6b,,,,2,5,2,5,3,6,3,6,4,7,4,7,
{16}4h[8:1],,8,8,3h[8:1],,7,7,2h[8:1],,6,6,1,5,1,,
{16}3b/7b,,,,7,4,7,4,6,3,6,3,5,2,5,2,
{16}4h[8:1],,3,3,5,3,6,2,{12}1v4[8:1]/7v4[8:1],17,17,{8}17,,
{8}5pp8[4:3],,,,,,,,
{8}1pp4[4:3],,,,,,,,
{8}7pp2[4:3],,,,,,,,
{8}3pp6[4:3],,,,,,,,
{8}5pp1[4:3],,,,,,,,
{8}4qq8[4:3],,,,,,,,
{8}7pp3[4:3],,,,,,,,
{16}2h[8:5],,,,,,1h[16:1],,,8h[16:1],,,,,,,
{16}47,,,5,6,,5,,6,5,,5,4,,43,,
{16}52,,,4,3,,4,,3,4,,4,5,,56,,
{16}74,,,5,7,,57,,4,6,,3,5,,43,,
{16}25,,,4,2,,42,,5,3,,6,4,,45,,
{16}73,,3,4,2,,43,,6,5,7,5,6,,53,,
{16}26,,6,4,7,,56,,3,4,2,5,3,,46,,
{16}6,5,7,4,8,3,1,2,7,8,6,1,5,2,4,3h[16:9],
{8},,,,{16}5-1[8:1],,,4h[16:7],5>5[4:1],,,,
{16}5b,,,,4,,3/7,,2>4[8:1],1,,1,2-6[8:1],,7,,
{16}2/5>2[8:1],,,,57,,6,,7<5[8:1],8,,8,7-3[8:1],,2,,
{16}7/4<7[8:1],,,,24,,3,,2>5[8:1],1,,1,2,,7,,
{8}5-2[8:1]/6-1[8:1],47,56,,7-2[8:1]/3-6[8:1],51,73,,
{16}8-4[8:1]/4,,,,8b/4b>5[4:1],,,,,,4,3,2-6[8:1],,2,,
{8}2/6,8h[4:1],,6-1[8:1],5-2[8:1]/7,6/4,5,,
{16}8-4[8:1]/1,,,7,8,,6h[8:1],,5-8[8:1],,4,,3-7[8:1]/5,,2,,
{8}7V52[4:1]*V14[4:1]/3,,,,,,8b-5[8:1]*-3[8:1],,
{16}8,,,6,2-5[8:1],,1/5-1[8:1],,6/2,,7v4[8:1],,8,,7/2>5[8:1],,
{16},,25,,6,,4>1[8:1],,57,,{24}84,7,6,{16}5,,87,,
{16}62,,,3,7-4[8:1],,8/4-8[8:1],,3/7,,2v5[8:1],,1,,28,,
{16}7<4[8:1],,38,,{24}47,3,2,{16}1,,2v4[8:1]/6v8[8:1],,37,,62,,,,
{8}5v2[8:1]*v8[8:1],,5b,,{16}7/1-5[8:1],,8,2,1,3,3h[8:1],,
{16}4-1[8:1],5,6,,4,,6,7,2/8-4[8:1],,1,7,8,6,6h[8:1],,
{24}5<8[8:1],4,3,2h[8:1],,,5b,,,3,,,4<8[8:1],3,2,1h[8:1],,,4b,,,,,,
{8}71,6,25,3,5-3[8:1]/4h[4:1],,5,,
{8},,,,,,,,
{8},,,,,,,,
{8},,,,,,,,
{8},,,,,,,,
