&title=Sanctum
&artist=Nardis; Saiph
&first=0
&des=圣所
&lv_5=14
&inote_5=(135)
{4},,,,
{8}
4bs8[4:13]/6s2[4:9],,,,,,,,
,,,,,,,,
,,,,,,,,
,,,,,,,,
,3h[8:14],,,,,,,
,7h[8:7],,,,,,,
5bw1[4:6],,,,,,,,
,,,,,,,,
{16}3/7h[4:1],,,,5-8[8:1],,,,7,,,5,,,1,,
7/3-1[12:1],,,,8-3[8:1],,,,4,,,6,,,8,,
6/2h[4:1],,,,4-1[8:1],,,,2,,,4,,,8,,
1/7-5[12:1],,,,4,,,2,12,,,53,,,78,,
6/2h[4:1],,,,4-1[8:1],,,,2,,,4,,,8,,
2/6-8[12:1],,,,1-6[8:1],,,,5,,,3,,,1,,
3/7h[4:1],,,,5-8[8:1],,,,6V47[16:3],,,,1,,3V14[16:3],,
,,8,,6-3[8:1],,,,2,,,1h[32:1],8>5[4:1],,6,,
{8}5bV38[16:3],,7-4[32:3]*-3[32:3],,7,,2qq3[8:3],3b/5pp8[8:3],
,,,,{12}3h,4h,5h,3h,4h,5h,
{12}3h,4h,5h,3s7[4:1],4h,5h,{8}3h,,8,8V64[16:3],
,3,1-6[32:3]*-4[32:3],,1,,5<2[4:1],,
{8}5/2V86[16:3],,4-1[32:3]*-8[32:3],,4,,7pp5[8:3],64,
,2,,4,{12}6h,5h,4h,6h,5h,4h,
{12}6h,5h,4h,6z2[4:1],5h,4h,{8}6h,,1,1V35[16:3],
,4,6<4[4:1],,6h[8:1],,6V83[4:1],5,
6/3V16[32:7],,4q5[16:5],,4,,,84,
{24}2,6-4[12:1],2,6,2,6,{32}1h[8:1],,,,,,,,{12}4h,3h,2h,5h,4h,3h,
6h,5h,4h,7s3[4:1],6h,5h,{8}7h,,4,4>7[16:3],
,8,6-4[32:3]*-3[32:3],,6,,2V47[4:1],,
2/7V52[4:1],,8q1[16:5],,8,,4qq5[8:3],2b/7qq8[16:5],
{8},,,,{12}5h,6h,7h,4h,5h,6h,
3h,4h,5h,2z6[4:1],3h,4h,{8}2h,,5,5V71[16:3],
,8,2>8[4:1],,2h[4:1],,,,
{16}3b/7b,,6,5,,5,4,,1>4[8:1],7,,7,1,,6,,
82,,3,4,,4,5,,6<1[8:1],3,,3,6,,2,,
35,,4,6,,6,2,,2v5[8:1],8,,8,2,,7,,
64,,5,3,,3,7,,7v4[8:1],1,,1,7,,2,,
35,,4,7,,6,2,,3<6[8:1],8,,8,3,,7,,
62,,5,1,,3,8,,46,,,,3b-5[12:1]/7-5[12:1],,2/8b,,
{8}3b-7[8:1]/7-3[8:1],,,,{48}1b/8,2,3,,,,,,,7b/2,6,5,,,,,,,3b/6,4,5,,,,
,,,6b/4,7,8,,,,,,,2b/7,3,4>5[24:11],,,,,,,,,,{8}4h[4:1],,,,
{8}8bV62[4:11]*qq4[4:13],,,,,,,,
,,,,,,,,
,,,,,,,,
,,,,,,,,
{12}
2h[12:3],,1,,3,,3h[12:3],,2,,4,,
4h[12:3],,3,,5,,5h[12:3],,4,,6,,
{8}6-3[4:1],,,,8,,2V46[4:1],2,
6V82[4:1],6,8h[16:1],{16},4,{8}4-1[8:1]*-7[8:1],,,,
2-7[4:1],,,,4,,6V82[4:1],6,
2V46[4:1],2,4h[16:1],{16},8,{8}8-5[8:1]*-3[8:1],,,,
7-3[4:1],,,,5,,3V57[4:1],3,
7V13[4:1],7,1h[16:1],{16},5,{8}5-1[8:1],,,,
{8}37,37,{16}5h[8:1],,,,5h[8:1],,,,{8}37,37,
{16}5h[8:1],,,,5h[8:1],,,,{8}3-5[12:1]/7-5[12:1],37,,,
17,17,{16}3h[8:1]/5h[8:1],,,,3h[8:1]/5h[8:1],,,,{8}17,17,
{16}3h[8:1]/5h[8:1],,,,3h[8:1]/5h[8:1],,,,{8}1>4[8:1]/7<4[8:1],17,,,
{12}63,6,6,54,4,4,35,5,5,63,3,3,
47,7,7,62,2,2,18,8,8,{32}72,3,4,5,6,7,8,1,
{8}2bz6[4:2]/7bz3[4:2],,,,,,,,
{32}3b/6bpp2[16:6],47,8h[32:6],,{8},,,{32}5<8[8:1],4,,,{8},,,
{32}1b/2b,83,74,,
{8},4-7[8:1],7V52[6:1],4,,,{48}1h[8:1]/6,5,4,,,,
,,,1h[8:1]/6,5,4,,,,,,,1h[8:1]/6,5,4,,,,,,,,,,{24}15,4,3,2,1,8,73,2,1,8,7,6,
{8}4b<7[8:1]*q8[8:1],,,,1h[8:1],3h[8:1],5h[8:1],{32}7V53[16:3],8V64[16:3],1,,
{8},8,,,{16}1,1,1,1,{8}8h[8:1]/2>6[16:3],,
2b/6V42[16:3],,8qq4[2:1],,8,{16}5h,4h,3h,2h,
{8}1h[4:1],,5,1p5[8:1]/7<5[8:1],,1>3[8:1]/7q3[8:1],,1/7V53[16:3],,
7/3<7[16:3],,1pp4[2:1],,1,{16}5,6,7,8,
{8}1h[4:1],,5,8-5[8:1]/2-5[8:1],,82,,7v4[8:1]/3V57[4:1],82,
3/7bV13[32:7],,4<1[4:1]*q1[4:1],,4,,,32,
{24}4,5,6,7,8,1,{8}2h[8:1]/6w2[8:1],,6,,8<5[8:1]/4>1[8:1],,
8bq4[8:1]/4bq8[8:1],,8bV62[4:1]/4bV26[4:1],,8b/4b,,,{32}26,,,,
,,,,15,,,,26,7-4[8:1]/3-8[8:1],48,,{8},7b/3b,,2v5[8:1]/6V42[4:1],,
{8}6/2bV86[32:7],,5>8[4:1]*V38[4:1],,5,,,67,
{24}5,4,3,2,1,8,{8}7h[8:1]/3w7[8:1],,3,,2>5[8:1],,
6-2[8:1],6,5-1[8:1],4,7-3[8:1],7,4-1[8:1],5,
6-2[8:1],6,8p5[16:5]*q3[16:5],7,8,,,,
{16}2,1,3,5,4,6,5,7,1-5[8:1],2,3-8[8:1],,1,,3,,
7,1,6,4,5,3,4,2,8-3[8:1],7,6-4[12:1],,8,,6,,
2,1,3,7,8,6,4,5,3-6[8:1],2,1-4[8:1],,3,,1,,
7,5,8,2,1,3,5,4,6-2[8:1],7,8-4[8:1],,6,,8,,
1,5,3,7,4,8,5,6,4-7[8:1],3,2-5[8:1],,4,,2,,
8,3,6,2,5-8[8:1]*-2[8:1],4,7,3,5,,,,8qq6[8:1]/2pp4[8:1],,,,
8bqq1[6:1]/2bpp1[6:1],,,,,,,,{32}8>3[8:1],7,6,5,,,,,7,,,,7-2[8:1],6,5,4,
,,,,6,,,,6,5,4,3,2,1,8,7,{16}6b-3[8:1]/3b-8[8:1],,,,,,,,
2b/6,3,4,5,6-2[8:1],7,8,1,2/6>1[24:5],,,,8,,,,
8b/5,7,6,5,4<3[8:3],3,2,1,8-5[8:1]/4,,,,,,,,
6/4b,7,8,1,2-6[8:1],3,4,5,6/2<5[24:5],,,,4,,3,,
4/2b,3,2,1/4b,8>7[24:9],7,6,5,4V28[6:1]/8,,,,,,,,
1b/7,2,3,4,5-1[8:1]/1,6,7,8,{16}5>2[8:1]/1<6[8:1],,,,,,,,
4/1b,3,2,1,8-4[8:1]/4,7,6,5,{16}84,,,,6<1[8:1]/2b>5[8:1],,5bV31[16:3]/1V75[16:3],,
{16}6/2b,,,,,,,,{48}2/6b,3,4,5,,,,,,8/4b,7,6,5,,,,,,1/5b,2,3,4,,,,,,
7/3b,6,5,4,,,,,,1b/8b,27,36,45,,,,,,,,,{32}18,,,,2,3,4,5,6s2[4:6],7,8,1,2,3,4,5,
{8}8bs4[4:5],,,,,,,,
,,,,,,,,
&inote_6=(135)
{4},,,,
{8}
4bs8[4:13]/6s2[4:9],,,,,,,,
,,,,,,,,
,,,,,,,,
,,,,,,,,
,3h[8:14],,,,,,,
,7h[8:7],,,,,,,
5bw1[4:6],,,,,,,,
,,,,,,,,
{16}3/7h[4:1],,,,5-8[8:1],,,,7,,,5,,,1,,
7/3-1[12:1],,,,8-3[8:1],,,,4,,,6,,,8,,
6/2h[4:1],,,,4-1[8:1],,,,2,,,4,,,8,,
1/7-5[12:1],,,,4,,,2,12,,,53,,,78,,
6/2h[4:1],,,,4-1[8:1],,,,2,,,4,,,8,,
2/6-8[12:1],,,,1-6[8:1],,,,5,,,3,,,1,,
3/7h[4:1],,,,5-8[8:1],,,,6V47[16:3],,6,,1,,3V14[16:3],,
,,8,,6-3[8:1],,,,2,,,1h[32:1],8>5[4:1],,6,,
{8}5bV38[16:3],,7-4[32:3]*-3[32:3],,7,,2qq3[8:3],3b/5pp8[8:3],
,,,,{12}3h,4h,5h,3h,4h,5h,
{12}3h,4h,5h,3s7[4:1],4h,5h,{8}3h,,8,8V64[16:3],
,3,1-6[32:3]*-4[32:3],,1,,5<2[4:1],,
{8}5/2V86[16:3],,4-1[32:3]*-8[32:3],,4,,7pp5[8:3],64,
,2,,4,{12}6h,5h,4h,6h,5h,4h,
{12}6h,5h,4h,6z2[4:1],5h,4h,{8}6h,,1,1V35[16:3],
,4,6<4[4:1],,6h[8:1],,6V83[4:1],5,
6/3V16[32:7],,4q5[16:5],,4,,,84,
{24}2,6-4[12:1],2,6,2,6,{32}1h[8:1],,,,,,,,{12}4h,3h,2h,5h,4h,3h,
6h,5h,4h,7s3[4:1],6h,5h,{8}7h,,4,4>7[16:3],
,8,6-4[32:3]*-3[32:3],,6,,2V47[4:1],,
2/7V52[4:1],,8q1[16:5],,8,,4qq5[8:3],2b/7qq1[8:3],
{8},,,,{12}5h,6h,7h,4h,5h,6h,
3h,4h,5h,2z6[4:1],3h,4h,{8}2h,,5,5V71[16:3],
,8,2>8[4:1],,2h[4:1],,,,
{16}3b/7b,,6,5,,5,4,,1>4[8:1],7,,7,1,,6,,
82,,3,4,,4,5,,6<1[8:1],3,,3,6,,2,,
35,,4,6,,6,2,,2v5[8:1],8,,8,2,,7,,
64,,5,3,,3,7,,7v4[8:1],1,,1,7,,2,,
35,,4,7,,6,2,,3<6[8:1],8,,8,3,,7,,
62,,5,1,,2,7,,45,,,,3b-5[12:1]/7-5[12:1],,2/8b,,
{8}3b-7[8:1]/7-3[8:1],,,,{48}1b/8,2,3,,,,,,,7b/2,6,5,,,,,,,3b/6,4,5,,,,
,,,6b/4,7,8,,,,,,,2b/7,3,4>5[24:11],,,,,,,,,,{8}4h[4:1],,,,
{8}8bV62[4:11]*qq4[4:13],,,,,,,,
,,,,,,,,
,,,,,,,,
,,,,,,,,
{12}
2h[12:3],,1,,3,,3h[12:3],,2,,4,,
4h[12:3],,3,,5,,5h[12:3],,4,,6,,
{8}6-3[4:1],,,,8,,2V46[4:1],2,
6V82[4:1],6,8h[16:1],{16},4,{8}4-1[8:1]*-7[8:1],,,,
2-7[4:1],,,,4,,6V82[4:1],6,
2V46[4:1],2,4h[16:1],{16},8,{8}8-5[8:1]*-3[8:1],,,,
7-3[4:1],,,,5,,3V57[4:1],3,
7V13[4:1],7,1h[16:1],{16},5,{8}5-1[8:1],,,,
{8}37,37,{16}5h[8:1],,,,5h[8:1],,,,{8}37,37,
{16}5h[8:1],,,,5h[8:1],,,,{8}3-5[12:1]/7-5[12:1],37,,,
17,17,{16}3h[8:1]/5h[8:1],,,,3h[8:1]/5h[8:1],,,,{8}17,17,
{16}3h[8:1]/5h[8:1],,,,3h[8:1]/5h[8:1],,,,{8}1>4[8:1]/7<4[8:1],17,,,
{12}63,6,6,54,4,4,35,5,5,63,3,3,
47,7,7,62,2,2,18,8,8,{32}72,3,4,5,6,7,8,1,
{8}2bz6[4:2]/7bz3[4:2],,,,,,,,
{32}3b/6bpp2[16:6],47,8h[32:6],,{8},,,{32}5<8[8:1],4,,,{8},,,
{32}1b/2b,83,74,,
{8},4-7[8:1],7V52[6:1],4,,,{48}1h[8:1]/6,5,4,,,,
,,,1h[8:1]/6,5,4,,,,,,,1h[8:1]/6,5,4,,,,,,,,,,{24}15,4,3,2,1,8,73,2,1,8,7,6,
{8}4b<7[8:1]*q8[8:1],,,,1h[8:1],3h[8:1],5h[8:1],{32}7V53[16:3],8V64[16:3],1,,
{8},8,,,{16}1,1,1,1,{8}8h[8:1]/2>6[16:3],,
2b/6V42[16:3],,8qq4[2:1],,8,{16}5h,4h,3h,2h,
{8}1h[4:1],,5,1p5[8:1]/7<5[8:1],,1>3[8:1]/7q3[8:1],,1/7V53[16:3],,
7/3<7[16:3],,1pp4[2:1],,1,{16}5,6,7,8,
{8}1h[4:1],,5,8-5[8:1]/2-5[8:1],,82,,7v4[8:1]/3V57[4:1],82,
3/7bV13[32:7],,4<1[4:1]*q1[4:1],,4,,,32,
{24}4,5,6,7,8,1,{8}2h[8:1]/6w2[8:1],,6,,8<5[8:1]/4>1[8:1],,
8bq4[8:1]/4bq8[8:1],,8bV62[4:1]/4bV26[4:1],,8b/4b,,,{32}26,,,,
,,,,15,,,,26,7-4[8:1]/3-8[8:1],48,,{8},7b/3b,,2v5[8:1]/6V42[4:1],,
{8}6/2bV86[32:7],,5>8[4:1]*V38[4:1],,5,,,67,
{24}5,4,3,2,1,8,{8}7h[8:1]/3w7[8:1],,3,,2>5[8:1],,
6-2[8:1],6,5-1[8:1],4,7-3[8:1],7,4-1[8:1],5,
6-2[8:1],6,8p5[16:5]*q3[16:5],7,8,,,,
{16}2,1,3,5,4,6,5,7,1-5[8:1],2,3-8[8:1],,1,,3,,
7,1,6,4,5,3,4,2,8-3[8:1],7,6-4[12:1],,8,,6,,
2,1,3,7,8,6,4,5,3-6[8:1],2,1-4[8:1],,3,,1,,
7,5,8,2,1,3,5,4,6-2[8:1],7,8-4[8:1],,6,,8,,
1,5,3,7,4,8,5,6,4-7[8:1],3,2-5[8:1],,4,,2,,
8,3,6,2,5-8[8:1]*-2[8:1],4,7,3,5,,,,8qq6[8:1]/2pp4[8:1],,,,
8bqq1[6:1]/2bpp1[6:1],,,,,,,,{32}8>3[8:1],7,6,5,,,,,7,,,,7-2[8:1],6,5,4,
,,,,6,,,,6,5,4,3,2,1,8,7,{16}6b-3[8:1]/3b-8[8:1],,,,,,,,
2b/6,3,4,5,6-2[8:1],7,8,1,2/6>1[24:5],,,,8,,,,
8b/5,7,6,5,4<3[8:3],3,2,1,8-5[8:1]/4,,,,,,,,
6/4b,7,8,1,2-6[8:1],3,4,5,6/2<5[24:5],,,,4,,3,,
4/2b,3,2,1/4b,8>7[24:9],7,6,5,4V28[6:1]/8,,,,,,,,
1b/7,2,3,4,5-1[8:1]/1,6,7,8,{16}5>2[8:1]/1<6[8:1],,,,,,,,
4/1b,3,2,1,8-4[8:1]/4,7,6,5,{16}84,,,,6<1[8:1]/2b>5[8:1],,5bV31[16:3]/1V75[16:3],,
{16}6/2b,,,,,,,,{48}2/6b,3,4,5,,,,,,8/4b,7,6,5,,,,,,1/5b,2,3,4,,,,,,
7/3b,6,5,4,,,,,,1b/8b,27,36,45,,,,,,,,,{32}18,,,,2,3,4,5,6s2[4:6],7,8,1,2,3,4,5,
{8}8bs4[4:5],,,,,,,,
,,,,,,,,
