&title=アマカケル
&artist=石鹸屋
&first=0
&des=Glowen
&clock_count=4
&lv_5=13+
&inote_4=(152)
{1},
&inote_5=(152)
{1},
{4},,,,
{4}5h[8:6]/6<4[8:4],,,,
{8}6/7h[8:2],,,2h[8:2]/8,,,3/4,,
{8}1b<2[8:4]/6h[8:6],,,,,,,,
{8}1h[8:2]/7h[8:2],,,5h[8:2]/8h[8:2],,,3/4,,
{16}2,6,2,6,2,6,2,6,3,5,3,5,3,5,3,5,
{16}2,4,3,8,1,6,5<4[16:6],7h[16:5],,,,,,,,,
{8}5p4[8:4],,,,,,,,
{16}3,,3,,3,,3,4h[16:3],3,,3,,3,,3,5h[16:3],
{16}3,,3,,3,,3,4-8[8:1],3,,2b-5[8:1],,,,2,,
{16}6,,6,,6,,6,5h[16:3],6,,6,,6,,6,4h[16:3],
{16}6,,7,,1,1,8,,3,5,4,6,2,,,,
{16}7/8,,7,,7/5,,7,1,7,,7,,7/4,,7,2,
{16}7,,7,,7/6,,7,3-8[8:1],,,6b-3[8:1],,,,6,,
{16}2,,2,,2/4,,2,7,2,,2/6,,2/6,,1,8,
{16},,5/7,,4,4,5,,3-8[8:1],4,3,4,3,,,,
{8}7,7/8,6,6/5,{16}4h[16:2],,5,3h[16:2],,4,2-5[8:1],,
{8},1/2,8h[8:1],,{16}3,,6,5,,,7>5[16:10]/4,,
{8}5p6[8:4]/6,,,,,,,,
{8}7V15[8:3]/1,,,4,3,3,2,,
{8}6/1,3,7/5,4,3/8,6,2/4,5,
{8}6/1,2,3,4/8,7,6,
{8}5p4[16:12]/4,3/6<3[16:10],,,,,,,,,
{8}1s5[8:4],6,,6,,2b,2b,,
{16}7,,4/5,,6,,4/3,,2,,2,8,,8,1,,
{16}6,,5/7,,6,,4/5,,3,,3,4,,4,2,,
{8}1pp6[8:4]/7,,5,6,6,7,7,,
{8}8qq4[8:4]/4,,3,3,2,2,1,,
{16}3/5,,4,5,3,,6/4,,5/7,,6,5,7,,4/5,,
{16}2,,1/3,,8,,1/7,,2/6,,5/3,,4-8[8:1],,,,
{16}4/8,,,,6,6,6-1[8:1],,,,2-5[8:1]/6,,,,2,,
{16}7b,,7,,3,3,3-8[8:1]*-6[8:1],,,,3,,,,7,,
{16}2,,2,,1/8,1/8,1-5[8:1]/8<5[8:1],,,,1>4[8:1]/8,,,,1,,
{16}7b,,7,,5/6,5/6,5/6V84[16:4],,,,4/6,,,,,,
{16}3,5,4,6,4,5,3,,7,1,8,2,8,1,7,,
{16}6h[16:1]/2,,7h[16:1]/3,,8h[16:1]/4,,1<5[16:3]/5,,,3b,,,3b,,,,
{16}8-3[8:1]/4,,2-7[8:1]/6,,4/8,,2,,5b,,1,8,,3,5,,
{16}4-7[8:1],,6-3[8:1]/2,,8/4,,6,,2,,5,1,,7,3,,
{4}2b-5[8:1]/8b<2[8:4],2,1-6[8:1],1,
{4}7-4[8:1]/1>7[8:4],7,8-3[8:1],8,
{8}1/2,5,8-4[8:1]/6,4/7,1/8,{16}3,3,5,2,7,,
{8}6/8,4/7,1-5[8:1]/5,3/6,7/1>8[16:4],8,1b/4b,,
{8}2,3,2/1,4/5,{16}7/8,,5,6/4,,4,5/3,,
{16}2/4,,6,,3/5,,7,,5/6,,8,8,2,2,4,4,
{16}6b,,5/7-4[8:1],,1-5[8:1]/3,,7/2,,1>4[8:1],,7,7,1,8,8,,
{16}3,,2/4,,7,3,5,,1/6-1[8:1],,2,2,6,3,3,,
{4}4b-7[8:1]/8b>7[16:8],4,8-3[8:1],8,
{4}5-2[8:1]/1<2[16:8],5,1-6[8:1],1,
{16}4,,5/3,,3,,4/2,,6,,6,5,,5,7,,
{16}1/3,,2/8,,1b,7,5,6,3qq5[8:2],,,,,,,,
{8}7s3[16:11]*s3[16:11],7,7/4,,8-3[8:1],,8,,
{8}1z5[16:11]*z5[16:11],1,1/4,,8-5[8:1],,8,,
{8}4z8[16:11]*z8[16:11],4,4/7,,5-8[8:1],,5,,
{16},,2b>5[16:1]/6,,,2/7b-3[16:1],,,1b-5[16:1]/7,,,1/6b<1[16:1],,,4b/6,,
{16}3-8[8:1],,3s7[16:9]*s7[16:9],,3,,,,4-7[8:1],,4,,4,,,,
{16}2-5[8:1],,2z6[16:9]*z6[16:9],,2,,,,1-6[8:1],,1,,1,,,,
{16}5-2[8:1],,5s1[16:9]*s1[16:9],,5,,,,5-8[8:1],,5,,5,,,,
{16},,{48}7b/3,,,{16},,{48}8/2b,7,6,{16}5,,{48}6/3b,,,{16},,{48}2/7b,3,4,{16}5,,{48}8b/4,7/3,6/2,{16}5/1,
{1},
E
