&title=MERLIN
&artist=REDALICE
&first=0
&des=IcreApte-100
&lv_6=13+
&inote_6=(180){1},
{8}7bp3[8:1]/2bq6[8:1],,2<4[4:1]/7,,,,,,
{8}8/4,3,7,2,,6,3,2,
{8}7,6,2,1,,2,7,6,
{8}1/5,6,2,7,,3,6,7,
{8}2,3,7,8,,7,2,3,
{8}7<4[4:1],4,3,2,,1,2,3,
{8}7-4[4:1],4,3,2,,1,2,3,
{8}7V51[8:3],4,3,2,,2,3,4V28[4:1],
{8},8,7,6h[4:1],,1,2/7,3,
{8}8/4h[8:1],,3h[8:1],,2/5,3,7/4,8-5[8:1]*p4[8:1],
{8},,,3h[4:1],,8,7/2,6,
{8}1/5h[8:1],,6h[8:1],,7/4,6,2/5,3>8[16:3],
{8},7,6,5h[4:1],,8,1/6,2,
{8}7/3h[8:1],,4h[8:1],,8/5,7,6/3,5-8[8:1]*q1[8:1],
{8},,,2h[4:1],,7,6/1,5h[4:1],
{16},,3,4,2,,2h[4:1],,,,8,,7/3,,4h[4:1],,
{16},,6,5,7,,1,8,2,,3,,6/4,,7,,
{8}8-6[8:1]/1-5[8:1],,1/8,,4/7,3,2/8,7h[8:1],
{16}3,,,,,,7h[8:1],,3,,7,5,6,,2,,
{8}1-3[8:1]/8-4[8:1],,8/1,,5/2,6,7/1,2pp5[8:3],
{8},5,6,7,,8,7,6,
{16}5/3,,2,,5/3,,6,4,7,,3,,6/4,,7,,
{16}6/4,,3,5,2,,7,,2/8,,3,,2/8,,7,1,
{16}6,,2,,1/7,,6,,1/7,,2,8,3,,7,,
{24}3,8,2,7,,,1,6,2,7,,,4-1[8:1]*-7[8:1],8,3,7,,,4b,,,,,,
{16}2h[8:1]/8h[8:1],,,2,,,2h[8:1]/8h[8:1],,,3,7,3,7,,2/8,,
{16}3,7,3,7,,,3/7,,4/6,,3b,5b,2b,,,,
{16}7h[8:1]/1h[8:1],,,7,,,7h[8:1]/1h[8:1],,,6,2,6,2,,7/1,,
{16}6,2,6,2,,,6/2,,5/3,,6b,4b,7b,,,,
{8}1/8,1,1/2,2,2/3,3,3/4,4,
{8}4/5,5,5/6,6,6/7,7,7/8,8,
{16}1,7,3,5,4,6,2,8,
{32}3,4,5,6,7,8,1,2,3,4,5,6,7,8,1,2,
{8}6bq2[8:1]/3bp7[8:1],,3<1[4:1]/6,,,,,,
{8}7-5[8:1],8,7,3-1[8:1],4,3,7-5[8:1],8,
{8}7,3-1[8:1],4,3,7-5[8:1],8,7,3,
{16}4h[8:1]/2,,1,2,5h[8:1],,2,3,6h[8:1],,3,4,7h[8:1],,,,
{32}8b<5[8:1]/5b-1[8:1],,,,,,,,8b/5b,,,,,,,,2b/4b,,,,3b/5b,,,,,,,,6b/4b,,,,
{8}2-4[8:1],1,2,6-8[8:1],5,6,2-4[8:1],1,
{8}2,6-8[8:1],5,6,2-4[8:1],1,2/5<3[8:3],6,
{8}7h[8:3]/5,,,,,4>6[8:3],3,2h[8:3]/4,
{16},,,,,,2,3,4-1[8:1]/5-8[8:1],,,,4/5,,,,
{8}2-4[8:1],1,2/8,6-8[8:1],5/7,6,2-4[8:1],1,
{8}2/8,6-8[8:1],5/7,6,2-4[8:1],1,2/8,6,
{16}5h[8:1]/7,,8,7,4h[8:1],,7,6,3h[8:1],,6,5,2h[8:1],,,,
{32}1b>4[8:1]/4b-8[8:1],,,,,,,,1b<6[8:1]/4b,,,,,,,,1b/5b,,,,3b,,,,,,,,2b/6b,,,,
{8}7-5[8:1],8,7/1,3-1[8:1],4/2,3,7-5[8:1],8,
{8}7/1,3-1[8:1],4/2,3,7-5[8:1],8,7/1,3,
{8}2/4,2,2,2,2/8,8,8,8,
{16}8/4,,4,,4,,4,,6/4,,2,8,3,,7,1,
{8}6-1[8:1]/2-6[8:1],,6>1[8:3]/2,,8,7,6,5<8[8:1],
{8},,,1>4[8:1],,4,5,6,
{8}3-8[8:1]/7-3[8:1],,3<8[8:3]/7,,1,2,3,4>1[8:1],
{8},8,7,6,,1/5,2/6,3/7,
{8}8-4[8:1]/4-2[8:1],,4<1[8:3]/8,,1,2,3,4<7[8:1],
{8},,,1>4[8:1],,6-2[8:1]/1-7[8:1],7,6/1,
{8},,1/6,,2/7,3-7[8:1]/8-2[8:1],1,3/8,
{16},,,,2/7,,1,8,1,,2/7,,3/6,,2/8,,
{8}3-8[8:1]/7-3[8:1],,3<8[4:1]/7,,1,2,3,
{24}4h[1:0],5,6,7,8,1,
{8}2-5[8:1]/6-1[8:1],,2/6,,5,4/8,3/7,
{8}6-1[8:1]/2-6[8:1],,6>1[4:1]/2,,8,7,6,
{24}5h[1:0],4,3,2,1,8,
{8}7-4[8:1]/3-8[8:1],2,3/7,,1,2>4[8:1]/6,7,
{24}8<6[8:1]/2,,,,,,8v2[8:1]/2v8[8:1],,,,,,2/8,,,,,,3/7,,,6,,,
{8}7/3,2,5/1,2,7/3,8,
{32}1/2,3,4,5,,,,,
{8}1/7,2,3/6,7,
{32}8/2,3,4,5,,,,,
{8}7/4,3,
{8}2b-5[8:1]/6b-1[8:1],,2/6,,8/4,7b/3b<1[2:1],,,
{1}8,
{1}6>8[2:1],
{1}1pp5[2:1],
{1}8qq4[2:1],
{8}3<1[2:1],6,5,,,4,,,
{8}6>8[2:1],1,2,3,,5,,,
{8}1pp5[2:1],6,7,,8,,,,
{8}8qq4[2:1],4,3,2,,,,,
{16}1b,1b,1b,,,,2b/8b,,,,7/1,2/6,3/5,,7/1,,
{8}1h[4:1]/7,,7,,2,8,1,7V51[8:3],
{8},,,
{32}2,3,4,,
{8},2,8,1,{8}4h[4:1]/6,,6,,3,5,4,6V84[8:3],
{8},3,2,1,,1,2/6,7,
{16}8/4,,7,,6/3,,2,,1/5,,2,,6/3,,7,4,
{8}8,1,2/5h[8:1],3,6/4h[8:1],7,1/8h[8:1],2,
{16}3/5,,6,4,7,,2/8,,1,4,3,,2/5,,6,,
{24}7,2,8,3,,,2,7,1,6,,,5-1[8:1]*w1[8:1],1,6,2,,,5b,,,,,,
{8}7b-4[8:1]/3b-6[8:1],,7b/3b,,,7/1,5/3,8/2,
{8}7b-4[8:1]/3bv8[8:1],,7>5[4:1]/3,,5,6,7,
{24}8h[1:0],1,2,3,4,5,
{8}6-8[8:1]/1-5[8:1],8,6b/1b,,4/7,2/8,3/5,
{8}2bv5[8:1]/6b-1[8:1],,2<4[4:1]/6,,4,3,2,
{24}1h[1:0],8,7,6,5,4,
{8}3-1[8:1]/8-4[8:1],1,3b/8b,,5,2>4[8:1]/6,7,
{24}8<6[8:1]/2,,,,,,2v8[8:1]/8v2[8:1],,,,,,2/8,,,,,,1>3[8:1
]/7<5[8:1],,,2/6,,,
{24}1v7[8:1]/7v1[8:1],,,,,,1/7,,,,,,2b/6b,3/5,4,,,,1/7,,,2,,,
{16}7/3,,6,,1/5,,2,,
{32}5/3,6,7,8,1,2,3,4,
{8}5,2,
{8}7b-4[8:1]/3b-8[8:1],,3/7,,5/1,2b>4[8:1]/6b<1[8:1],,6p5[1:3]/2,
{1},
{1},
{1},
{1},
E
