&title=EFN
&artist=VRIGGER
&first=1.05
&des=MiraT the N
&lv_5=13
&inote_5=(167)
{8}7/A2/B2,,7/A3/B3,,7/A4/B4,,8,,
{8}1h[4:2],3,5,7,7-3[8:1],,78,,
{8}1/A6/B6,,1/A5/B5,,1/A4/B4,,2,,
{8}3h[4:2],1,7,5,5-1[8:1],,54,,
{8}2/A7/B7,,2/A6/B6,,2x/A5/B5,,1,,
{8}8h[4:2],6,4,2,2x-6[8:1],,21,,
{8}8,B7,1,B2,7x,B6,2,B3,
{8}8,7,64,35,2xh[8:4],C,E1,E7,
{8}E5f,,,,1,1,1,1,1-4-8-5[8:4],2,2,2,,,,,
(167.5)
{8}4h[8:1]/5h[8:1],,4h[8:1]/6h[8:1],,5h[8:1]/3h[8:1],,4h[8:1]/5h[8:1],,
{32}A6/2x<3[8:2],B6,C,B2,{8},,,1-5[8:1],,1h[16:1],,
{8}8b-6[8:1]*-2[8:1],,8-4[8:1],,8/3-1-6[8:2],,35,,
{8}7<4[8:1],8,72,3,2-6[8:1],1,25,,
{8}7-5[8:1]/8-4[8:1],,7-3[8:1]/8,,2-5-1[8:2]/7,,25,,
{8}6b<1b[8:1],,6b/2b,,4bq8b[8:1],,4b/3bh[16:1],,
{8}1b-3[8:1]*-7[8:1],,1-5[8:1],,1/6-8-3[8:2],,64,,
{8}2>5[8:1],1,27,6,7-3[8:1],8,74,,
{8}2,1/B5/E5,6,8/E2/B2,3,1/B6/E6,7,8/B4/E4,
{32}2bx<3b[4:1]/A6,B6,C,B2,{8},,,1-5b[8:1],,1b,,
{8}4h[8:4]/8-3[8:1],,8-5[8:1],,8,,3>7[4:1],,
{8}7-1-3[4:1],6,5,6,6,,C,,
{8}6h[8:4]/1-3[8:1],,1-5[8:1],,1,,6<2[4:1],,
{8}2-8-6[4:1],3,4,3,3,,C,,
{8}3h[8:4]/8-6[8:1],,8-4[8:1],,8,,3>7[4:1],,
{8}7-1-3[4:1],6,5,6,6,,C,,
(168)
{8}8-5-7-4b[8:8]*-3-1-4b[8:8],,,,,,,,
{8},,,,8w4[8:1],,8b,,
{8}7-5[8:1],4,7-1[8:1]/3,2,7-5[8:1]/3,4,7-1[8:1]/3,2,
{8}7-5[8:1]/3,4,7-1[8:1]/3,2,7-3[8:1]/3,,7,,
{8}2-4[8:1],5,2-8[8:1]/6,7,2-4[8:1]/6,5,2-8[8:1]/6,7,
{8}2-4[8:1]/6,5,2-6[8:1]/6,7,2w6[8:1]/6,,2b,,
{8}8-6[8:1],5,8-2[8:1]/4,3,8-6[8:1]/4,5,8-2[8:1]/4,3,
{8}8-6[8:1]/4,5,8-2[8:1]/4,3,8-4[8:1]/4,,8,,
{8}6-1[8:1]/2-5[8:1],,6x/2x,,8<5[8:1]/4>1[8:1],,8x/4x,,
{8}2h[8:3],4,6,8,8w4[8:1],,8b,,
