&title=Complete Darkness
&artist=上海アリス幻樂団
&first=-0.1
&des=NaOH
&clock_count=4
&lv_4=13
&lv_5=13+
&inote_4=(211.72),,,,,,,,
(197.12){4},
6h[4:8],,,,,,,,2h[4:8],,,,,,,,
8h[4:8],,,,,,,,3h[4:7],,,,4h[4:3],,,,
6h[4:2]/5,,7,6,3h[4:2]/5,,2,3,6h[4:2]/4,,
7,6,3h[4:2]/5,,2,3,6h[4:2]/4,,8,6,4h[4:2]/2,,2,1,{8}8h[8:5]/1,,6,6,,5,5,,
{4}45,23,18,67,
(206.66)
{8}6-2[4:2],,7,7,,5,5,,8h[4:1],,1,,2h[4:1],,1,,8-4[4:2],,1,1,,7,7,,
6h[4:1],,5,,4h[4:1],,5,,6^3[4:2],,2,2,2h[4:1],,,,2h[4:1],,1,,8h[4:1],,1,,
8<5[4:2],,,1,,,2,,1>4[4:2],,,7,,,6,,
6h[4:2]/2,,,,7h[4:2],,,,4h[4:2],,,,1h[4:2],,,,5h[4:2],,,,2h[4:2],,,,
7h[4:2],,,,6,,,,
1h[4:2]/8,,,,3h[4:2],,,,5h[4:2],,,,7h[4:2],,,,
1h[8:5],,8,8,,7,7h[4:3],,6,,5,,4,,3b,,
(211.72)1/4h[8:3],,2,1h[8:3],,3,4h[8:2],,8h[8:3],,6,5h[8:3],,7,8h[4:1],,
4h[8:3],,2,1h[8:3],,3,4h[8:2],,8h[8:3],,6,5h[8:3],,7,8h[4:1],,
5h[8:3],,3,4h[8:3],,2,1h[8:2],,8h[8:3],,3,4h[8:3],,2,1h[4:1],,
7h[8:3],,6,5h[8:3],,8,7h[4:1],,3,4,5,6,5,4,36,,
4/1h[8:3],,3,4h[8:3],,2,1h[8:2],,5h[8:3],,7,8h[8:3],,6,5h[4:1],,
1h[8:3],,3,4h[8:3],,2,1h[8:2],,5h[8:3],,7,8h[8:3],,6,5h[4:1],,
2h[8:5],,1,1,,3,3,,7h[8:5],,8,8,,6,6,,
(211.72){8}6,5,(206.4675)4,3,(201.215)6,5,(195.9625)4,3,
(182)6b^3[4:3],,(174),,(169.7),,,,
(197.12){4}
2h[4:8],,,,,,,,8h[4:8],,,,,,,,
4h[4:8],,,,,,,,6h[4:8],,,,,,,,
3^6[4:7],,,,,,,,2^7[4:7],,,,,,,,
6^3[4:7],,,,,,,,1-5[4:2],,,,7-3[4:2],,,,1-5[8:1],8,
(211.72){8}
8/4h[8:3],,3,2h[8:3],,1,8h[4:1],,
6h[8:3],,7,8h[8:3],,5,4h[4:1],,
2h[8:3],,3,4h[8:3],,5,6h[4:1],,
8h[8:3],,6,5h[8:3],,4,3h[4:1],,
1h[8:3],,8,7h[8:3],,6,5h[4:1],,
8h[8:3],,1,2h[8:3],,3,4h[4:1],,
1h[8:6],,3,3,,7,7h[4:1],,
6,5,4,3,4,5,36,,
1/5h[8:3],,6,7h[8:3],,8,1h[4:1],,
3h[8:3],,2,1h[8:3],,4,5h[4:1],,
7h[8:3],,6,5h[8:3],,4,3h[4:1],,
1h[8:3],,3,4h[8:3],,5,6h[4:1],,
8h[8:3],,1,2h[8:3],,3,4h[4:1],,
1h[8:3],,8,7h[8:3],,6,5h[4:1],,
8,2,6,4,8h[4:1],,,,6,6,5,5,4,4,3,3,
2,1,2,1,3,4,3,4,2,8,2,8,4,6,4,6,
3,7,3,7,5,7,4,7,3,5,3,5,4,6,4,6,
5,6,5,6,3,4,3,4,5,6,5,6,3,4,3,4,
2,1,2,1,8,7,8,7,2,1,2,1,8,7,1,2,
3,4,3,4,2,5,2,5,2,6,2,6,4,6,4,6,
5,7,5,7,3,7,3,7,1,7,1,7,2,8,2,8,
3,4,3,4,2,1,2,1,3,4,3,4,3,5,3,5,
3b,7,1,5b,3,7,1b,5,3,7b,1,5,8,4,2-5[4:1],6-1[4:1],,,,,
&inote_5=(211.72){4},,,,,,,,
(197.12)
1,
5-8[4:4]/2,2,3,3,4,4,5,5,
4-1[4:4]/7,7,6,6,5,5,4,4,
6-1[4:4]/5,5,4,4,3,3,2,2,
3-8[4:3]/4,4,5,5,6,6,6-3[8:1]/1-4[8:1],,
5>2[8:1]/6,7h[4:1],1-5[8:1],8,4>1[8:1]/6,7h[4:1],8-3[8:1],6,
5<8[8:1]/4,3h[4:1],1-5[8:1],2,4<7[8:1]/3,2h[4:1],8-4[8:1],1,
2-5[8:1]/1,8h[4:1],4-1[8:1],7,7-4[8:1]/8,1h[4:1],5-8[8:1],2,
3^6[8:1],7,7^2[8:1],3,3b/4b,5b/6b,7b/8b,1b/2b,
(206.66)
{8}3-6[8:1],,5,5,5-8[8:1],,1,,1h[4:1],,3h[4:1],,5h[4:1],,7h[4:1],,
6-1[8:1],,8,8,8-5[8:1],,2,,4-8[8:1],,3,,5-1[8:1],,6,,
6-3[8:1],,4,4,4-1[8:1],,8,,8h[4:1],,6h[4:1],,4h[4:1],,2h[4:1],,
3-7[4:2],,2,2,,1,1,,1-5[4:2],,7,7,,6,6,,
3>8[8:1],3,4,,6<1[8:1],6,5,,3-8[8:1],3,4,,6-1[8:1],6,5,,
3,4,5,6,5,4,36,,2-7[8:1]/5h[4:1],,,,6-3[8:1]/1h[4:1],,,,
2-6[8:1]/7,,5,5,5-1[8:1],,2,,2h[4:1],,4h[4:1],,6h[4:1],,8h[4:1],,
2h[8:5],,1,1,,4,4h[4:4],,5b,,6b,,7b,,8b,,
(211.72)
1-6[8:1],,3-8[8:1],,5-2[8:1],,6,,7-2[8:1],,5-8[8:1],,3-6[8:1],,2,,
8-3[8:1],,6-1[8:1],,4-7[8:1],,3,,2-7[8:1],,4-1[8:1],,6-3[8:1],,7,,
7-4[8:1],,1-6[8:1],,3-8[8:1],,5-2[8:1],,7-4[8:1],,1-6[8:1],,3-8[8:1],,4h[4:1],,
1-6[8:1],,5-2[8:1],,4-7[8:1],,8h[4:1],,6,5,4,3,24,24,24,,
8-3[8:1],,6-1[8:1],,4-7[8:1],,3,,2-7[8:1],,4-1[8:1],,6-3[8:1],,7,,
1-6[8:1],,3-8[8:1],,5-2[8:1],,6,,7-2[8:1],,5-8[8:1],,3-6[8:1],,2,,
2>5[8:1],,7^2[8:1],,4^7[8:1],,1>4[8:1],,6^1[8:1],,3^6[8:1],,8>3[8:1],,5<8[8:1],,
(211.72)1,1,(206.4675)2,3,(201.215)4,6,(195.9625)5,7,
(182)7b,,(174)5b/6b,,(169.7)3b/4b,,1b/2b,,
(197.12)
8-4[4:6]/3-7[4:6],,,,,,,,,,,,,,,,
6<1[4:6]/5>2[4:6],,,,,,,,,,,,,,,,
4-7[4:6]/3-8[4:6],,,,,,,,,,,,,,,,
1>4[4:2]/6h[4:3],,,,,,,,8<5[4:2]/3h[4:3],,,,,,,,
3h[8:3],,,4h[8:3],,,5h[8:3],,,6h[8:3],,,5,,5,,
7h[8:3],,,8h[8:3],,,1h[8:3],,,2h[8:3],,,8,,8,,
6h[8:3],,,2h[8:3],,,4h[8:3],,,8h[8:3],,,4,,4,,
5<8[8:4],,2,2h[4:1],,,,,2>5[4:2],,7,7h[4:1],,,,,8-4[8:1],,1b,,
(211.72)
7<4[8:1],7,8,8-4[8:1],8,1,1>4[8:1],,6<1[8:1],6,5,5-1[8:1],5,4,4>1[8:1],,
7<4[8:1],7,8,8-4[8:1],8,1,1>4[8:1],,6,6,57,57,8,8,17,17,
2>5[8:1],2,1,1-4[8:1],1,8,8-5[8:1],,4>1[8:1],4,6,6-3[8:1],6,7,7-2[8:1],,
3-8[8:1],3,7-4[8:1],7,3-6[8:1],3,7-2[8:1],7,3,4,5,6,45,45,45,45,
6<1[8:1],6,5,5-1[8:1],5,4,4>1[8:1],,7<4[8:1],7,8,8-4[8:1],8,1,1>4[8:1],,
6<1[8:1],6,5,5-1[8:1],5,4,4>1[8:1],,7,7,86,86,5,5,46,46,
3>8[8:1],3,4,4-1[8:1],4,5,5-8[8:1],,1>4[8:1],1,7,7-2[8:1],7,6,6-3[8:1],,
2,1,8-4[8:1],7,8h[4:1],,,,3,2,34,34,5,6,67,67,
7<4[8:1],8,1,2-5[8:1],1,8,7,,6^1[8:1],5,4,3^6[8:1],2,1,8,,
2>5[8:1],1,8,7-4[8:1],8,1,2,,3^8[8:1],4,5,6^3[8:1],7,8,1,,
1-4[8:1],8,7,6-1[8:1],5,4,3,,3-8[8:1],4,5,6-3[8:1],7,8,1,,
2,2,23,23,4,4,45,45,36,{16}5,4,5,,{8}36,27,18,27,36,
5<8[8:1],4,3,2>5[8:1],1,8,7,,7^2[8:1],6,5,4^7[8:1],3,2,1,,
1<6[8:1],2,3,4>1[8:1],5,6,7,,4^7[8:1],3,2,1>4[8:1],8,7,6,,
6-1[8:1],6,5,4,3-8[8:1],3,4,5,6-2[8:1],6,5,4,3-7[8:1],3,4,5,
6,6,45,45,3,3,24,24,3,2,1,2,34,45,56,7-4[8:1]/6,
(206.66),,8b,,2b/6b,,
