&title=翠杜
&artist=隣の庭は青い(庭師+Aoi)
&first=0
&des=Asahisrza
&lv_5=14
&inote_1=
&inote_4=
&inote_5=(180){8},,,,,,,
{16}3h[1:0]/6,5,4h[1:0]/2,,,,,,
{16}3,4,{4}3-1[12:1],5,7-5[12:1]/5,4,2-4[12:1]/4,5-8[8:1],
{4}5/7h[4:1],B8,C1,
{8}2<6[4:1],,6z2[4:1]b,,,8h[4:1],,,5-8[8:1]/7,46,3/5,,,
{16}2,1,{4}2-4[12:1],5,6-8[12:1]/8,1-5[8:1],1/4h[4:1],,
{12}4,6,3,7,2,8,1,7,8,6,1,5,
{8}2h[1:0]x,4,
{16}7h[16:1],,5,,8,1,1,,4h[16:1],,2,,
{16}7-3[8:1]/1,,1,,71,,1,,4-8[8:1]/1,,1,,14,,1,,
{16}1-5[8:1]/7,,7,,71,,7,,6-2[8:1]/7,,7,,76,,7,,
{16}83,,2,,61,,7,,46,,7,,25,,3,,
{4}2/8-4[8:1],8>3[8:1],8<5[8:1],8,
{16}3,4,3,4,2,5,2,5,1,,1,,73,,73,,
{16}6,5,6,5,7,4,7,4,8,,8,,62,,62,,
{32}2,3,4,5,6,7,8,1,{16}5x,5x,5x,,
{32}8,7,6,5,4,3,2,1,{16}5x,5x,5x,,
{32}8,1,2,3,4,5,6,7,8,1,2,3,
{8}8x-4[0.68##0.16]b/4,2,7,3,8bx,
{16}1,,3,4,2,,7,8,7-4[8:1],,1-5[8:1]b,,7,,1,,
{16}7,,6,5,7,,3,4,2>5[8:1],,8-4[8:1]b,,2,,8,,
{16}1,,3,4,2,,7,8,7-4[8:1],,1-5[8:1]b,,7,,1,,
{16}8,,8,,1,,8x/2h[4:3],,7,6,5,4,5,6,7,8,
{8}1b>5[4:1],,5-7-1[8:3]b,5,,1-3-5[8:3],1,,5,5,,
{16}7,8,7,1,7,2,7,3,7,4,
{8}7bxq5[4:1],,5q3[8:3]b,5,,3<8[16:5],3,,E3,E2,,
{16}2,1,2,8,2,7,2,6,2,5,{32}2bx-6[8:1],,,,,,,,
{16}2x/8z4[6:1]b,,,,2/8x,,,2,,,1b/8b,8b/1b,
{8}2b/7b,,E7/E3/B6/B7/B2/B3/C1f,,
{16}1-5[8:1],,1,,1,,,,
{16}26,,3,4,2,,8,1,8-4[8:1],,2-5[8:1]b,,8,,2,,
{16}8,,3,4,2,,1,7h[16:7]b,{32}E8,E7,E6,E5,E4,E3,E2,E1,C1f,,,,,,,,
{8}1-5[8:1],7-4[8:1]b,1,7,2x-7[8:1],6x-3[8:1]b,2x-5[8:1],6x-1[8:1]b,2x,6x,
{8},4x/8x,37,2x/6x,15,4bqq5[8:9]b/8bqq1[8:9],{2},,,
{16}2,6,2,6,1,5,1,5,{16}2,4,3,5,4,5,{16}3,4,2,8,1,7,5,6,1b,2,
{16}3,4,1p5[8:1]/5p1[8:1],,1,,1,,,,,,{16}51,62,73,84,{8}5/1-5[2:1],,
{8}2h[16:1],,3h[16:1],,4h[16:1],{16}3,2,{8}1-5[8:1]b,,7,,
{8}64,64,53,24,1>5[8:1]/3-7[8:1],,1x/3x,,
{8}68,57,46,3-7[0.5##0.12]/5,,,
{4}6b-1[12:1]/3,4b-8[12:1]/6,4b-1[12:1]*-7[12:1],4bpp8[2:1]b*qq8[2:1]b,,,
{16},,17,26,3q8[8:1]b/5p8[8:1]b,,,,,,,,,E2,E7,E3,E6,,,,
{16}1h[16:1],,,E4/B3/8,,,6/1h[1:0],,7h[16:1],,,B6/B5/2,,,4/7h[1:0],,
{16}2h[16:1],,,B5/B4/6,,,8h[1:0]/2,,
{32}E6/B6/1h[4:1],,{16},,,,2,3,,
{16}8h[16:1],,,17,6,25,,,4h[16:1],,,35,2,16,,,
{16}1h[16:1],,,28,3,7h[16:1]/4,,,6x-2[8:1]`1xz5[8:1]b,,,,,,,,
{16}3,4,3,4h[16:1],2,,6,5,6,5h[16:1],7,,2,1,2,1h[16:1],3,,7,8,7,8h[16:1],6,,
{16}2,4,3,4h[16:1],2,,6,5,7h[16:1],,3,4,2h[16:1],,7,8,6,8h[16:1],5,,2,1,3,8h[16:1],4,,
{16}3,4,2,4h[16:1],1,,7,8,6h[16:1],,2,1,3,8h[16:1],4,,,,
{16}7b,3,6,2,5h[16:1],,1b,5,2,4,3h[16:1],,1b,2,8,1,7h[16:1],,2b,5,3h[16:1],,6,4,7h[16:1]b,,
{16}1,8,2,7,4b,5,8,7,1,6,4b,5,3,4,2,8,1,7,
{4}2b-6[16:1]b,1b-5[16:1],8b-4[16:1]b,7b-3[16:1],
{8}1h[2:1]x/C1f,,,B3/A3,A7/B7,,8,2,2h[1:1]/1,,E3,E4,E5,E6,E7,E8,
{8}8h[2:1]x,,,B6/A6,A2/B2,,1,7,7h[1:1]/8,,{16}A6,D6,A5,D5,A4,D4,A3,D3,A2,D2,A1,D1,
{8}8h[2:1]x,,,6,7,,1,8,2h[1:1],,A1,A3,A8,A4,A7,A5,
{8}Ch[2:1],,,1q3[4:1],1,,,,
{8}7,56,4,34,1bxv4[8:1]*v6[8:1]b,6x/4b,1bx,,
{8}2h[8:1],,8,8<5[8:1],2bh[8:1],,3,3-7[8:1],
{8}5bh[8:1],,4,4<7[8:1],8bh[8:1],,1,,2bh[8:1],,8,8<4[8:1],3bh[8:1],,1,,
{8}2b-5[8:1],8,7b-4[8:1],1,2b,,
{8}3,3,35,3,46,6,24,2,57,7,35,2,46,7,34,1,56,8,
{16}1,5,1,5,2,6,2,6,
{32}2b,3,4,5,6,7,8,1,2-6[8:1]b/7b,6,5,4,3,2,1,8,
{8}7/2bx/C1f,,,,,,,,
{16}15,,3,4,2,,8,1,8-4[8:1],,2-5[8:1]b,,8,,2,,
{16}7,,6,5,7,,3,4,2-6[8:1],,7-1[12:1]b,,2,,7,,
{16}3,3,5,,42,,7,7,4-8-2-6[8:3],,{8}2bh[2:1],4bx,,,,,
{16}37,,2,8,{16}1>5[8:1],,5p1[8:1],,{32}5x,6,7,8,,,,,
{32}B8,C1,B4,,,,,,{16}62,,7,1,{16}8<4[8:1],,4q8[8:1],,{32}4x,3,2,1,,,,,
{32}B1,C1,B5,,,,,,{16}37,,2,8,{16}1>4[32:3],,1,,{32}8,7,6,5,,,,,
{16}5x-1[8:1]b,6,4,7,5,,8,8x,2,6,4,7,1b-5[8:1],,,,1b/4bh[8:1],,,,,,
{32}3h[8:1],,,,1b,8,7,6,2h[8:1],,,,8b,7,6,5,
{16}2,,6,4,7,,1,8,1-5[8:1],,7<4[8:1]b,,1,,7,,
{16}2,,3,4,2,,6,5,7-3[8:1],,2-8[12:1]b,,7,,2,,
{16}6,6,4,,57,,2,2,8,,13,,{32}2bh[8:7]/8b,7,6,5s1>6[32:13]b,,,,,
{8},,,,,
{16}7x,8,1b,2,3/7x,8,1b,2,3,,8,1,7,2,8,,
{8}1p5[8:1],2,3,4p8[8:1],5,6,7<4[8:1],8,1,2,
{16}3-1[8:1],,{32}1-5[8:1],,,,,,{16}8,,,
{16}6-8[8:1],,{32}8-4[8:1],,,,,,{16}1,,,
{16}3>8[8:1],,{32}8-4[8:1],,,,,,{16}7,,,
{16}5,,5x-2[8:1]*-8[8:1],,5x,,5x,,,,
{16}73,,6,5,7,,2,1,3-8[8:1],,7-4[8:1]b,,3,,7,,
{16}2,,3,4,1,,6,5,8-4[8:1],,2-5[8:1]b,,8,,2,,
{16}7,7,5,,46,,3,3,1,,82,,{32}2b/8b,73,6/4z8[32:5],5s1[8:1],,,,,
{8},,,{16}2,3,48,7,61,2,37,6,5,,
{8}1-3-5[4:1],,1/5v2[8:1],7,8-6-4[4:1],,8/4v7[8:1],2,
{8}1-3-5[4:1],,1/5v2[8:1],7,8,,83,7,
{16}16,,3,4,2,,38,,38,,6,5,7,,16,,
{16}27,,1,8,2,7,1,8,3,6,1-5[8:1],8,2,7,1b,,
{16}6,,3,4,2,,7,8,6-1[8:1],,2-5[8:1]b,,6,,2,,
{16}7,,6,5,8,,3,4,2-8[8:1],,7-4[12:1]b,,2,,7,,
{32}3,2,1,8,7,,,,5h[16:1],,,,1,2,3,4,5,,,,8,,,,
{32}4bx/8bx,37,26,5s1[2:1]b/1s5[2:1]b,,,,,{1},
{8}2-5[8:1],2,2/8-4[8:1],8,8/1-5[8:1],1,1/6-1[8:1],6,
{8}6/2-5[8:1],2,28,8,{16}4,8,3,7,2,6,1,,
{16}7,8,6,1,7h[16:1],,2,1,3,8,2h[16:1],,6,5,7,4,6h[16:1],,3,4,2,5,3h[16:1],,
{16}6,8,7,1,6h[16:1],,2,3,4,56,7,8,1,,3,4,2,5,1h[16:1],,6,5,7,4,8h[16:1],,
{16}3,4,2,5,1h[16:1],,7,8,6h[16:1],,
{24}1,2,3,5,6,7,81,2,3,4,,,
{16}1b,3,8,2,7h[16:1],,1b,8,3,4,2,6,5b,7,3,4,2,6,5b,7,2,1,3,6,5b,7,
{16}1,8,2,5,4b,6,3,4,2,6,5b,7,3,4,2,8,1,7,
{24}
2b,3,45,6,7,81
,2,3,4b/5b,6,7,82,3,4,51,
2,3,4,5b/1b,62,73,4bp2[1:3]/8bp6[1:3]b,{1},,,,E
