&title=sweet&sweet holiday
&artist=Printemps
&first=0
&des=luvlily
&lv_5=12
&inote_5=(138){1},,
{8}4w8[8:3],,,,,,,2>1[8:5],
{8},,,,,,,6>7[8:5],
{8},,,,,,,3qq4[8:5],
{8},,,,7qq1[8:5],,,,
{8}2pp8[8:5],,,,,7,6,5,
{8}5<1[8:4],,8,,2,,3,,
{8}4>8[8:4],,1,,7,,6,,
{8}5<1[8:3],5,8,8,2,2,3qq5[16:7],3,
{8},6,6,,,18,18,1z5[8:5]/8s4[8:5],
{8},,,,,,,,
{8}5h[4:1]/2,,1-4[8:1],,,8,7,3h[8:3]/5,
{8},,7-5[8:1],,2h[8:2],,6^3[8:1],,
{8}1qq7[4:1]*-6[4:1],,,,,4,3,1/7h[8:2],
{8},4,4-2[8:1],6,6h[8:2],,2V46[8:4],2^7[8:3],
{8},,,,,4,6,2h[8:3]/8,
{8},,6-8[8:1],,3-5[8:1],,7^2[8:1],,
{8}5p8[4:1]*>1[4:1],,,,,2-5[8:1],5,2,
{8},7-3[8:1],3,7,,1-5[8:1],5,1,
{8}7-2[8:1],7,3-6[8:1],3,8w4[8:1],,8,,
{8}2^5[8:1],2,6>1[4:1],,1<1[8:4],,5h[4:2],,
{8},,,6,7h[8:1],8,1h[8:1],8,
{8}6^1[8:1],6,2<5[4:1],,5-1[8:1],,1,,
{8}8,8,1-6[8:1]*pp3[8:1],,1,,,,
{8}3^8[8:1],3,7>4[4:1],,4<4[2:1],,8h[8:4],,
{8},,,7,6h[8:1],4,3h[8:1],5,
{8}1-4[8:1],,1,8-5[8:1],,8-3[8:1],,5-1[8:1],
{8},2,2qq8[8:1]*-7[8:1],,2bpp4[8:1]*-5[8:1],,2b,,
{8}5-2[8:1],,7h[4:1],,4-7[8:1],,2h[4:1],,
{8}6p2[8:1],,8h[4:1],,3q7[8:1],,1h[4:1],,
{8}6p1[8:1],,8h[4:1],,3q8[8:1],,1h[4:1],,
{8}7q4[8:1],,5h[4:1],,2p5[8:1],,4h[4:1],,
{8}8-5[8:1],8,4<1[8:2],3h[8:1],,2,3,4,
{8}4-1[8:1],4,8>5[8:2],7h[8:1],,6,7,8,
{8}1/8-4[8:1],,2-6[8:1]/8,,7-3[8:1]/2,,4w8[8:1]/7,,
{8}4,,,1,26,37,48,1<3[8:5]/5>7[8:5],
{8},,,,,,,,
{8}1b/5b,,,3b/7b,,4,6,5/7^2[8:1],
{8}8,17,3-7[8:1],4,5-1[8:1],,2,2^7[8:1],
{8}1,82,6-2[8:1],5,4^1[8:1],,7,7h[8:4],
{8},8,1,2,3h[8:3],4,5,6,
{8}7-3[8:1],3-7[8:1],7,,,1,7,8/6^3[8:1],
{8}5,46,2-6[8:1],1,8-4[8:1],,3,3^6[8:1],
{8}4,53,7-3[8:1],8,1^4[8:1],,6,6h[8:4],
{8},5,4,3,2h[8:3],1,8,7qq8[16:5],
{8},1,1,,,46,2,7-4[8:1]/8,
{8}1,47,3-8[8:1],2,1-6[8:1],,2,2-5[8:1],
{8}8,52,6-1[8:1],7,8-3[8:1],,7,7h[8:4],
{8},6,5,4,3h[8:3],2,1,8,
{8}7-2[8:1],2^7[8:1],7,,,17,3,6-1[8:1]/5,
{8}4,16,2-5[8:1],3,4<2[8:2],,3,3-8[8:1],
{8}5,83,7-4[8:1],6,5>7[8:2],,6,6h[8:4],
{8},7,8,1,2h[8:3],3,4,5pp4[16:5],
{8},3,3,,,18,18,1z5[8:5]/8s4[8:5],
{8},,,,,,,,
{8}4h[4:1]/7,,1-5[8:1],,3,2,15,6,
{8}7/3-8[8:1],6-1[8:1],3,6,2h[4:1],,8^3[8:1],,
{8}4pp5[4:1]*V27[4:1],,,,,4,26,8<5[8:1],
{8}8,2,4^1[8:1]*v7[8:1],6,4,,18,2,
{8}43,2,54,2,65,4,{16}2,8,{16}2,,
{8}7p3[8:1]/3,2q6[8:1],7,2,8h[4:1],,1^6[8:1],,
{8}5qq4[4:1]*V74[4:1],,,,,2qq8[8:1]/7pp1[8:1],36,2b/7b,
{8},3qq1[8:1]/6pp8[8:1],45,3b/6b,,3-8[8:1]/5,46,37,
{8}6-1[8:1],7,3-7[8:1]/6,2,6-2[8:1]/3,,3bqq5[1:1]/6bpp4[1:1],,
{8},,,,,,,,,,,,,,,,E
