&title=Rrhar'il
&artist=Team Grimoire
&first=0.12
&des=Phigrans
&des_5=Phigrans
&lv_5=14+
&inote_5=(190){4},,,,{48}8bxp4v6[2:3]/1bxq5v3b[2:3],
7/2,6/3,5/4,{1},{4},,,{16},,{24},{1}5bxv2-4[2:1]/4bxv7-5b[2:1],
{8}4/6,3,5/3,6,5/2h[8:3],5,6,7,
7b/3b,{16}2,8,{8}2,7b/3b,8-4[8:1],2-5[8:1],8b,2b,
{16}8bx,7,6,1bx,2,3,7bx,6,5/1bx,2,3,4,5/1bx,8,7,6,
{8}5/1,{16}2,7,{8}3,6/2,{4}5/1>4[4:1],{16}5/1,6/A2,7/D3,8/A3,
{1}1h[4:7]/A4f,
{64}E3,B3,B4,E5,{16}5xh[16:11],,,,,,,,,,,,,,,{1}1qq6[2:1]/5qq2b[2:1],
{4}7b-4b[8:1]/2b-5[8:1],7b/2b,{8}3,{16}6-2[8:1],5,{8}7,6,
3-8[8:1],4,3,5,6/2,{16}1-5[8:1],8,{8}2,1,
7,{16}4,5,{8}3,6/4,{16}7,5,7,5,6,4,6,4,
{8}6,5/7,3,4/2,{16}3,5,3,5,2,6,2,6,
{4}7b/1b,{16}1,1,{8}1,{16}7,7,{8}7,{16}4,4,{8}4,
3/5,4/6,5/7,4/6,3/5,6,4/6,5/3,
{16}2,3,4,5,8,7,6,5,3,4,2,6,5,7,4,6,
3,5,4,5,4,6,3,6,{12}3bx,1bx,2bx,6bx,8bx,7bx,
{2}8bx-4b[8:1]/1bx-5[8:1],{8}6,{16}3-7[8:1],4,{8}2,3,
6-1[8:1],5,6,4,2/8,{16}1-5[8:1],8,{8}1,7,
7,{16}4,6,{8}4,{16}5,3,{8}5,6/4,3,2/4,
{16}1,8,7,6,5/4,3,2,1,7,6,5/1,2,3/7,6,5/2,3,
{4}4/7b-4b[8:1],{8}7/1,2,{16}3,6,2,7,1,8,{8}1,
7-4[8:1],2-5[8:1],7,2,{16}8,7,6,5,4,3,2,1,
8h[64:1]/4h,,,8h[64:1]/4h,,,{8}8h[64:1]/4h,{16}6h[64:1]/2h,,,6h[64:1]/2h,,,{8}6h[64:1]/2h,
{4}8h[8:3],2h[8:1],{16}2/7bxh,3,4,5,6/1bxh,7,8,1,
{4}2/6bxh,{8}2-8[8:1],8-4[8:1],{4}4-6[0.3158##0.1579],{8}6x,,
{4}7x/3x,{8}7-1[8:1],1-5[8:1],{4}5-3[8:1],3x,
{16}3x,5,3,5,2,6,2,6,1,2,3,4,8,7,6,5,
2-5[8:1],1,3,8,{8}2,7-1-5[4:1],2,3,{4}4h[8:1],
3b/7b,{8}7-1[8:1],1-3[8:1],{4}3v8[0.3158##0.1579],{8}4x,,
{4}2x/6x,{8}2-8[8:1],8-6[8:1],{4}6v1[8:1],5x,
{8}7/3,{16}6,4,{8}6,5/2,{16}3,5,{8}3,7/4,6,
{16}7/3,4,5,6,7,8,1,2,3/7,6,5,4,3,2,1,8,
{8}7b/3b,{16}4,6,3,5,4,6,3,4,2,6,5,7,3,5,
2,6,1,6,2,6,3,6,3,7,3,8,3,7,3,6,
{8}4,{16}4p8[8:1],6,{8}3,4x,6,{16}6q2[8:1],4,{8}7,6x,
4-1[8:1],5-8[8:1],4,5,3bx,7b/2b,6b/3b,5b/4b,
7b/3b,{16}4,6,3,5,{24}4,6,4,{8}6,3/5,{16}6x,4,5,3,
7x,4,5,4,8x,4,5,4,{8}1x-6[8:1]*-4[8:1],1,{4}1b,
{24}7b/1,6,5,4,,,{8}7/1,{24}1b/7,2,3,{8}4,7/1,{24}7b/1,6,5,4,,,{8}1,
{16}7,8,{8}7,{16}3,2,{8}3,{16}6,5,{8}6,{16}4,3,
{8}6b/2bxh[4:1],,,3b/7bh[8:1],,6h[16:1]/4h[16:1],4x/6x,7/3,
,8h[8:1]/2h[8:1],,2/8,,2h[16:1]/8h[16:1],8x/2x,7/3,
2/6-8[8:1],6/2,{16},,1x,2x,{8}6/3x,{16}7x,6x,{8}1/5x,{16}1/5,2/6,
{8}3/7,3/7,2h[16:1]/6h[16:1],2x/6x,{16}6b/2b,,,7b/3b,,,{8}5b/4b,
,,{4}3b/Cf,{8}3h[16:1]/6h[16:1],6x/3x,7/4,6/5,
{16}5/3,,,4,{8}5/3,3h[8:1]/7h[8:1],,8,{16}1x/7x,1x/7x,{8}1x/7x,
{16}2>6[16:3],,,6<2[16:3],,,{8}8x,8xh[4:1],{16},,,,6/2,3/5,
{2}4bx-8[8:5],4bx-8b[8:1],
{4}7/1pp4[8:11],8-5[8:1],8,6,
6,7-5[8:1],7,6,
5pp8[2:3],4-1[8:1],4,2,
{8}3h[4:1],,,4,{2}4h[4:1],
{4}3/8-3[4:1],3-6[4:1],6-1[4:1],1q5[4:1],
5q1[4:1],1>5[4:1],5<1[4:1],{16}1,2,3,4,
{4}5b-2-8-3b[16:11],{8}7,7,6,6,7,7,
{12}8h,4h,6h,3h,5h,4h,7h,1h,5h,4h,8h,7xh,
{64}2bh[2:7]/A7,B7,Cf,B3,{16}A3,{1},{4},,,{16},,{64}A1,
B1,C,B5,{16}5xh[64:91],{1},{4},,,{8},1h[16:1]/8h[16:1],
1/8,{16}7/2,2/7,,,2/7,7/2,,,8/2,3/7,6/4,5,
{1}B8f/B2f/B6f/B4f/Ch[1:2],
,5-7-1v6[2:1]*-3-1v4[2:1],
{8}7b/3b,{16}6,4,{8}5,{16}3,4,{8}2-8[8:1],8v3[8:1],2,5,
5h[8:3],{16},,,,6,7,8,1,2,3,4/5,6,7,8,
{4}5b/1b,{16}6,5,7,3,4,2,6,4,8,3,5,1,
{8}8h[4:1],3,3,{16}2q4[4:1],7,{4}2,{8}8,7,
{4}6b/2b-5b[8:1],{8}2/7,7,{16}3,4,3,4,2,5,2,5,
{8}1/6,{16}2,1,{8}2,{16}3,4,{8}3,2/6-1[8:1],2>5[8:1],6,
2b,7,8-4[8:1],1-5[8:1],8-6[8:1],1-3[8:1],8,1,
{16}5,6,7,8,4,3,2,1,{8}8/4,{16}7,4,{8}5/3,{16}4,6,
{4}1b-5b[8:1],8/1,{16}3,4,{8}2-6[8:1],6-2[8:1],2,
{4}8-4[8:1],8/3-6-2-5[8:3],7,{8}8,{16}1,8,
{4}7-3[8:1],{8}7/3,2,1v6[8:1],8p4[8:1],1,8,
2bh[4:1],{16},,,,2/6,3/7,{4}4h[8:1]/8h[8:1],{16}4,7,{8}4,
{24}3b/8,4,{12}5,{48},3b/8,,4,,5,,,,,{24}3b/8,4,5,{48},,,3b/8,,4,,5,,,,,{8}7b/3b,3b/7b,
{16}5,3,4,2,5,3,6,4,7,6,5,4,{32}3/8,1,2,3,4,5,6,7,
{8}4bx/8bx,8bx/4bx,,7b/3b,{4}3b/7b,{8}6b/2b,3b/5b,
{16}7b/B4f,,,2b/B5f,{48},,,,,,{24}6b/B1f,,,{16}1,8,1,8,2-5b[8:1],7,2,7,
2b,B4f,,,6-1[8:1],5,{8}7,6,3v8[8:1],8-2-5[8:1],3,
7-4[8:1],7,7/1-5[8:1],2,1/8-4[8:1],7,8/2-6[8:1],2,
{4}2/8-5[8:1]*-3[8:1],8,{16}7,8,6,2,1,3,{32}8,7,6,5,
{8}4b/8b-4b[8:1],4-2[8:1],8,6,{16}7-4[8:1],,,7,{8}7/2,2,
7b/3b,6,2v5[8:1],5-3-1[8:1],2,7,7-1[8:1],1x-6[8:1],
7,2,3-8[8:1],5,3/6,{16}6,5,{8}4,7/3,
7b/3b,{16}7,5,{8}7,7/4,2b/6b,{16}2,4,{8}2,2/5,
7b-5[8:1],{16}1,1,{8}7-1[8:1],{16}2,2,{8}7-3[8:1],{16}3,3,{8}7-4b[8:1],{16}2,2,
{8}7b,2,8/2,2,7/2,{16}2,6,{8}2,{16}2,5,
{8}2,{16}2,4,{8}2,7/4,{16}5,6,{8}5,{32}7/3,4,5,6,7,8,1,2,
{8}3b/7b,7,7/4,{16}7,4,{8}7,{16}7,3,{8}7,{16}7,4,
7b/A4f,,,1b/2b,,,{8}6b/5b,{12}5/3,5/3,5/3,4/6,4/6,4/6,
{8}5<8[4:1],4,3,2,1>4[4:1],8x,7,6,
{16}5,6,7,8,1,2,3,4,5/1b,4,2,5,3,6,2,7,
{32}1bx,2,3,4,5,6,7/5bxh,8,1,2,3,4,5/1bxh,6,7,8,1,2,3/5bxh,4,5,6,7,8,{4}1h[8:1]/5h[16:1],
{16}4,5,3,6,2,7,1,8,{24}2,7,2,7,2,7,1,2,3,{96}8bxv3b[5.2105##0.3158]`4bx<4[2.6842##2.5263],,,7/3,,,{32}6/2,5/1,
{1}4bxh[1:2]/8bxh[1:2],
,,,A8,
E
