&title=日常と地球の額縁
&artist=wowaka
&first=0.3499999
&lv_5=13+
&des_5=show 敬愛
&inote_5=
(150){4}7h[4:3]/5h[4:3],,,,{1}2h[4:3]/4h[4:3],
{4}4h[2:1]/6h[4:3],,,4,
3h[2:1]/5h[2:1],,,5/3,
{8}2h[2:1]/B6/A6,B5,,B4,{4}B3,2/C,
{8}7h[2:1]/B3/A3,B4,,B5,{4}B6,7/C,
{8}4bh[2:1]/5bh[8:7],,,,,4,4,4,
{16}4bx,5bx,4bx,5bx,3bx,6bx,3bx,6bx,2bx,7bx,2bx,7bx,{4}1b,
{8}6V47[4:1],{16}4,4,,3,,,{8}2,8h[4:1],{4}2,
{8}3>8[16:3],{16}5,5,,6,,,{8}7,6,{4}5/1,
{8}4-1[8:1],{16}6,6,,7,,,{8}8<5[8:1],1>4[8:1],8,1,
{16}7,6,5,4,8,1,2,3,{8}7-3[8:1],3,{4}7b/1,
{8}8/3V52[4:1],{16}5,5,,6,{8}6,7-3[8:1],7/1h[4:1],{4}7,
{8}6<1[8:1],{16}5,5,,3,{8}3,2-5[8:1],5,{4}2,
{8}7-3-7[4:1],{16}4,4,,2,{8}2,1v4[8:1],8v5[8:1],1,8,
{16}4,3,2,1,5,6,7,8,{8}1w5[8:1],8,{4}1b,
{16}3b,4,3,4,{8}3h[4:1],2,1-4[8:1],8,{4}7/1b,
{16}7b,5,7,5,{8}7,8v5[8:1],1v3[8:1],8b,{4}1b,
{16}6b,4,6,4,{8}6,7,8,1,2,3,
{16}3,5,3,5,3,4,3,5,4-2[16:1],6,4,5,{4}4b,
{16}6>3[8:1],5,6,5,{8}6bx,7,8-5[8:1],1,{4}2/8b,
{16}2,4,2,4,{8}2,1-5[8:1],8-4[8:1],1b,{4}8b,
{16}3,5,3,5,{8}3,2,1,8,7,6,
{16}1,5,2,4,3,5,4,6,5,7,4,8b,,,,,{8}4/6,
6/4,7,{16}7h[8:3],6,,5,{8}5,{4}4,
{8}5/3,2/6,2,{16}2,3,,3,{8}4,{4}5,
{8}5/3,3/5,2,{16}2h[8:3],3,,4,{8}4,{4}5,
{8}4/6,7/3,7,{16}7,8,,1,{8}2,3,3,
3/5,3/5,1h[2:1],{16}8,8,,7,{8}7,{4}6,
{8}3/8,3/8,2,{16}2,8,,1,2,3,{4}7/4,
{16}3,4,{8}3,5/2,{16}6,5,{8}6,7/4,4/7,{16}6,6,
3,3,5,5,2,2,7,7,1w5[8:1],1,8,8,,,,,{8}3/4,
1/8,7,{16}8-4[8:1],7,,6,{8}6,{4}5,
{8}4/6,7/3,1,{16}1,8,,7,6,5,{4}4,
{8}5/6,7/8,8,{16}1>4[8:1],8,,7,{8}7,{4}6,
{8}5/3,2/6,8,{16}8,1-5[8:1],,1,,8,,,{8}3/7,
6/4,6/4,8h[2:1],{16}1,1,,2,{8}2,{4}3,
{8}6/1,6/1,7,{16}7,1,,8,7,6,{4}2/5,
{16}7,8,{8}7,1/6,{16}2,1,{8}2,8/3,4/7,{16}6,6,
5,5,4,4,3,3,2,2,1w5[8:1],1,8,8,{4}1>8[1:1],
{2}1,C,
Ch[2:1],8,
{4}7-3<5-8[2:3],C,,C,
,C,,C,
7h[4:3],6,,5,
2h[4:3],3,,4,
6<2[2:1],B3/B4,,B3/B4,
7>3[2:1],B6/B5,,B6/B5,
8<1[1:1],8,{2}C,
Ch[2:1],1,
{4}2>8[1:1],C,,C,
{1}1w5[2:1],
{4}3h[4:3],4,,4,
6h[4:3],5,,5,
{1}Cf/B3f/B2f/B6f/B7f,
{16}6,5,,,3,4,,,{8}8,,,8/1,
7/2-5[8:1],6<1[8:1],2,6,{4}5-1[8:1],5/7,
{8}8,7/1,2/6h[4:1],3,{4}4-1[8:1]*-7[8:1],4b,
8/7-5[8:1],{8}7/8,8-4[8:1],,8/2-6[8:1],,2,
,7/5,5s1b[8:1]/4z8b[8:1],2/4,{4}5/4,Cf,
{8}2/7<4[8:1],1-5[8:1],7,1,{4}6<1[8:1],6/1,
{8}3/1-5[8:1],8,7-4[8:1]/1-3[8:1],8,{4}7/1s5[8:1],1,
7/3-7[8:1],{8}6-2[8:1],6,,8>4[8:3],8,8,
{4}4<8[4:1],8>4[4:1],{8}Cf,,,1/8,
2/7<4[8:1],3-7[8:1],7,3,{4}4-8[8:1],4/2,
{8}7h[4:1],6,2h[8:1],1,{4}8-5[8:1]/3-8[8:1],3b/8b,
8>3[8:1],{8}7/8,8-5[8:1],,8,3-7[8:1],5h[4:1],
{4}3,{8}5,{16}7,8,1-5[8:1],2,{8}3h[8:1],,,6/3-5[8:1],
7,3/8-4[8:1],8,{4}8<5[8:1]*>3[8:1],8w4[8:1],
8b,6/2,{8}3/7,3/7,3>8[8:1]/7<4[8:1],3/7,
,,8>3[8:1]/4<7[8:1],8/4,,,3pp2<8[4:3]/7pp6>4[4:3],7/3,
{1},{32}2,
3,4,5,{8}6,{32},,,,,,,,7,6,5,4,{8}3,{16},,,,2,
4,2,4,3,5,3,5,4,6,4,6,3,7,2,7,
1,2,3,4,1,2,3,4,8,7,6,5,8,7,6,5,
1,5,2,6,3,7,3,1,4,8,5,7,4,6,3,5,
2,3,4,5,6,7,8,1,2/6,7,8,1,2,3,4,5,
6,3,8,4,7,5,7,1,6,2,6,3,{4}8b,
{16}2h[8:1]/5h[8:1],,,7h[8:1]/4h[8:1],,,{8}3h[16:1]/6h[16:1],{4}5h[8:1]/2h[8:1],{16}5,2,5,2,
{32}B2,B3,B4,B5,B6,B7,B8,B1,E2,E3,E4,E5,E6,E7,E8,E1,2x,3x,4x,5x,6x,7x,8x,1x,2x,3x,4x,5x,6x,7x,8x,1x,
{2}2/5h[2:3],{8}B3,,,C,
,,{4}B8,{8}B6/A6,,,2h[8:13],
{2}A6,B6,
{8}B8,B1,{4}B2,{2}C/B3,
{8}6h[2:3],,,A4,B4,B3,,C,
B2,B1,{4}B8,{2}A7/B7,
E7/E3,{8}E2/E6,,,7p2[8:5],
{4}3p6[2:1],,,C,
{16}6,5,{8}6,{16},,3,4,{4}3,{16}5,4,{8}5,
{16}3,5,3,5,,,6,4,6,4,,,4,5,4,5,
3,4,3,4,{8}3h[8:1],{16}7,5,7,5,{8}7h[8:1],{16}4,5,4,5,
4,5,3,6,2,7,1h[4:1],8h[16:3],,,,,{8}8/1,C,
{16}3,7,3,7,8,2,1,3,8,4,8,5,7,5,6,4,
7,3,8,2,1,3,8,4,7,4,5,3,6,2,{8}7,
{1}1b/8b,
{16}3h,,,4h,,,{8}2h,{16}6h,,,5h,,,{8}7h,
1h[8:7],,,,,,,5,
2b/6-1[8:1],2>5[8:1],6,2,{4}8-4[8:1]*-3[8:1],8b,
{8}4,3/5,6/2h[4:1],7,{4}8w4[8:1],8b/Cf,
5/4-2[8:1],4-8-6[4:1],{8}3,3-7[8:1],,8,
,3/1,1p4b[8:1]/8q5b[8:1],2/7,{4}1/8,Cf,
{8}7/2>5[8:1],8-4[8:1],2,8,{4}3>8[8:1],8/3,
{8}6/8-4[8:1],1,2>5[8:1]/8<5[8:1],1,{4}2/8z4[8:1],8b,
{8}3qq6[8:3],5,{4}6,{8},8-4[8:1],,8,
,3/7,{4}2-5[8:1]/6-1[8:1],{8}6b/2b/Cf/B6f/B7f/B3f/B2f,,,3b/8,
7/2-5[8:1],6-1[8:1],2,6,{4}5>1[8:1],5/1,
{8}6h[4:1],5,2h[8:1],3,{4}3/7>2[8:1]*<4[8:1],7b,
{8}4<7[8:1],3,2,1>4[8:1],8,7,6-2[8:1],4h[4:1],
{4}6,{8}4,{16}2,1,4/8-4[8:1],3/7,2/6,1/5,{4}4/8b,
{8}3/6>4[8:1],2,1-7[8:1]*-3[8:1],1,{4}1p4[8:1]*q6[8:1],1,
{2}Cf/B7f/B6f/B2f/B3f/B5f/B4f,{8}4/8,4/8,4V25[8:1]/8V61[8:1],4/8,
,,1V72[8:1]/5V36[8:1],1/5,,,6,{32}2/6,1,8,7,
6,5,4,3,2,1,8,7,6,5,4,3,2,1,8,7,6/E2,E1,E8,E7,E6,E5,E4,E3,{4}E2f/Cf,
{8}6/3-8[8:1],7<4[8:1],3,7,8-4[8:1],1,{4}8/6,
{8}5,6/4,3/7,2/8,{32}1w5[8:1],2/8,3/7,4/6,,,,,{4}1b/Cf,
5/2bqq8>2-4<5b[16:9],{8}2/8,5b<8[8:1],,5,,8,
,7/3,8z4b[8:1]/2s6b[8:1],3/7,{4}2b/8b,Cf/B6/B5/B4/B3,
{8}3/6<1[8:1],4-8[8:1],6,4,6>4-8[4:1],7,{4}3/6,
{8}3-7[8:1],4,5<8[8:1]/3>8[8:1],4,{4}3pp1[4:1],{8}3,8,
{4}7-3[8:1],{8}7,2-5[8:1],,7b<3b[8:3],7,7,
{4}3>5[8:3],7b<3[4:1]*<3[4:1],{8}Cf,,,4/5,
3/6<1[8:1],2-5[8:1],6,2,1bw5b[8:1],2/8,{4}1b,
{8}6h[8:1],5,1/2h[8:1],8,{16}3-6[8:1]/7-2b[8:1],6/2,{8}5/1,{4}3b/7b/Cf/B8/B5/B4/B1,
{8}5>2[8:1],6,7,8<5[8:1],1,2,3-7[8:1],8h[4:1],
{4}3,{8}8,{16}6,5,8/4-8[8:1],3/7,6/2h[8:1],5,,,,,{8}7/1-5[8:1],
6,{4}1/5-3[8:1]*-7[8:1],5v8[8:1]*v2[8:1],5w1[8:1],
{32}B5f,C,{16}B8/B1/B2,,,,,,,{8}7/3,7/3,3>8[8:1]/7<4[8:1],7/3,
,,4<7[8:1]/8>3[8:1],8/4,,,3q5<8b[4:3]/7q1>4[4:3],3/7,
{16},,,,,,,,,,,,,,,,3,
5,4,6,{8}5,{16}6,5,,3,{8}4,3/6,8b/B4/B5/Ch[32:0],
E
&des=mmfc
