&title=混沌ブギ
&artist=jon-YAKITORY
&first=0.1
&des=一只自定义
&lv_5=13+
&des_5=一只自定义
&inote_5=
(190){4},,4h[8:1],4h[8:1],
6-3[8:1],4,5h[8:1],5h[8:1],
2-7[8:1],5-8[8:1],1pp3[8:1],5-8[8:1],
{8},,1x/4x,1xpp3[8:1],,5-8[8:1],,,,1x/4x,
{4}1x/4x,6h[8:1],6h[8:1],
7-4[8:1]/2-5[8:1],7/2,3h[8:1],3h[8:1],
6p4[4:1],1h[8:1],1>4[8:1],1<6[8:1],
1-5[8:1],3xs7[4:1],{16},,,,,,,,1,
8,1,8,{32}1x,2,3,4,8x,7,6,5,{4}Cf,2x<7[8:1],
{8}6>3[8:1],5,2-5[8:1],1,{4}2/6-1[8:1],6,
{8}3h[4:1],4,5h[4:1],4,{4}2v5[8:1],5>2[8:1]*<8[8:1],
{8},,1,7v4[8:1],,4<7[8:1]*>1[8:1],,,,8x,
{4}1V35[4:1],5v2[16:3]/1-7[8:1],1,
6h[8:1]/4h[8:1],5h[8:1]/3h[8:1],2v3[8:1],7v6[8:1],
{8}E5,E4,2x-4[8:1]*-6b[8:1],2x,,,{4}7/5,
{8}7/1,1/7pp6pp5pp4[1:1],,3h[4:1],,,{4}2h[8:1],
1h[8:1],1w5b[8:1],1b,D8/D7/D3/D4/A7f/A3f,
{8}7x-2[8:1],7x,3-6[8:1],3,{4}8-5[8:1]*-3[8:1],8,
{8}2/4,1,7/5,4,{4}3/5,{8}4h[8:1],C,
3h[8:1],C,2h[8:1],C,{4}7/5,2/4,
{16}8h[8:1]/7h[8:1],,,7h[8:1]/5h[8:1],,,{8}3/5,2x/6h[8:1],4,7x/3h[8:1],5,
2x/6h[8:1],4,7x/3h[8:1],5,1x/6h[8:1],4,8x/3h[8:1],5,
1x/6h[8:1],4,8x/3h[8:1],5,1x/6h[8:1],4,7x/3h[8:1],5,
{16}4,4,{8}7,{16}4,4,{8}8,2/6x,{16}3,4,{8}3,8/2,
7/3,6/4,{4}5h[4:1],2-4v5-7[2:1],8,
{2}8-4[8:1],{4}2h[8:1],7h[8:1],
{8}4,4,5,5,{4}7>3[4:1],3v5[4:1],
5,{8}3,2,4,6,4,2,
{16}8,8,{8}4,{4}3h[8:1]/7h[8:1],{2}8>2v3[4:1]/3<5[8:1],
{4}1xv4[8:1],5x-8[8:1],{8}3,2-7[8:1],,8/2,
,,{4}5,5/2v7[8:1],5,
5/8-4[8:1],5,5/3>7[8:3],5,
5h[8:1],5h[8:1],{8}2-4[8:1],6,2,6,
2-4[8:1],5,2,5,2-4[8:1],6,2,8,
{4}1-5[8:1],1,6<8[8:1]/2>4[8:1],6/2,
1p5[8:1]/5p1[8:1],5/1,{8}6/2,7/3,4/8<5-1[4:1],5,
,,,,2-8[8:1],4,2,5,
2-4[8:1],6,2,6,2-8[8:1],4,2,4,
{2}7-2[8:1],{4}E4/A4/D4,D6/A5/E6,
{16}E3,B3,{8}B4,{16}B8,B7,{8}E7,4h[2:1],,,3-6[8:1],
{2}3,{4}7xh[4:7],{8}B3,E5,
,E2,E3,E4,{4}E5/B5/A5,E2/B1/A1,
{8}E8,E7,E6,E5,{4}3xh[4:7],A6/D6,
A2/D2,{8}E8,E7,{4}E6,{8}E2,E1,
E8,E7,E6,E5,{4}2-7[4:1],7-4[4:1],
4-1[4:1],1-6-4[8:3],{8}4,4V27[8:3],{4}2,
7x-3[8:1],5x,{8}6,6,5/3,3/5,
{16}2,4,2,4,3,5,4,6,{4}C,7p2b[16:3]/2>6b[16:3],
{32},E7,E6,E5,E4,E3,,,,,,,,,,,{4}6bpp8[8:1],2bpp4[8:1],
{8}2-6[8:1],7,2,7,{4}4qq4[4:1],8/4pp4[4:1],
8-2v5b[4:1],8,1x-4b[8:1],1b/5b-8[8:1],
{48},,E4/E6,B3/B6,B2/B7,E2/E8,,,,,,,{8}2x/3x,1x-4b[8:1],,1b/5b-8[8:1],{48},,,,,,,,E4/E6,B3/B6,B2/B7,E2/E8,
,,,,,,{8}7x/2x,{4}7x/2x,6-8[8:1]/5-1[8:1],6/5,
{8}2-6[8:1],7-3[8:1],2,7,{4}1h[8:1],1h[8:1],
{8}5-7[8:1],4-2[8:1],5x,4x,{4}8h[4:1],6h[4:1],
4h[4:1],2-4[8:1]*-6[8:1],{8}2x,,,6,
5,4,{4}2x-6[8:1]/4-8b[8:1],2b/4b,7x-5[8:1],
{8}7-4[8:1],1,7,1,{4}2-5[8:1]/6v1[8:1],6/2,
{8}3,7,2,2,{4}8x-5b[8:1],8b/4b-1[8:1],
{48},,E6/E4,B6/B3,B7/B2,E8/E2,,,,,,,{8}2x,8x-5b[8:1],,8b/4b-1[8:1],{48},,,,,,,,E6/E4,B6/B3,B7/B2,E8/E2,
,,,,,,{8}2/7,{4}2/7,6>3[4:1],3p6[4:1],
8h[8:1],1h[8:1],1-5[8:1]/2-4[8:1],2/1,
{8}E6,E7,8x/2x,8x/2x,{4}1b<6[8:1],{8}1/3,2-6[8:1],
5x,2x,,E7h[8:7]/B6h[8:7]/B7h[8:7],,,,,,,{4}B2,
{48}A3,D4,A4,D5,A5,D6,A6,D7,A7,D8,A8,D1,{64}7bx/A1,D2,6bx/A2,D3,{16}5bx/A3,{48},,,,,,{24}1bx/E6/D6/A5f,
2bx,{12}3bx,{24},,8bx/E4/D4/A4f,7bx,{6}6bx,{24}1bx/B7/B6,2bx,3bx,4bx,,,8bx/B2/B3,7bx,6bx,5bx,,,{8}2bx/6bx,
2bx/6bx,{16}E4,E5,{8}E6,3b/7b,7b/3b,{16}E6,E5,{8}E4,
2b/8b,2b/8b,{16}4b,4b,{8}4b,8bx/2bx,8bx/2bx,{16}1b-5b[8:1],5b,3b,7b,
,,,,,,,,{4}6bx/1bx-5b[8:1],4b/1b-3b[8:1],
7b/1b-5b[8:1],4b/1b-3b[8:1],7b/1b-5b[8:1],4b/1b,
{8}8b,8b,{16}3b,5b,{8}3b,{4}1b-5b[8:1]/8b-6b[8:1],8b-4b[8:1]/1b-3b[8:1],
8b-6b[8:1]/1b-5b[8:1],8b/1b,{8}1bx/2bx,A3/A4/D4f,6bx/5bx,{64}A7/A8/D8f,,,,,,,B2h[64:1],
Cfh[64:1],B6h[64:31],{4},,{32}E5,{16}E4,{1},,,{4},,,{8},{2}2V84[4:3],
{16}6x,,,6x,,,{8}6x,{2}7-1-5[4:3],
{4}3h[8:1],3h[8:1],{8}2,2,1/5x,1,
{4}8/4xh[4:1],8,{2}1h[8:7]/5h[8:7],
{4},,B2f/B6f/E7/E3/D3/D7/C/B7/B3/E8/E4,3x/8x-4[8:1],
{8}8-6[8:1],5,8,3,{4}2<7[8:1]/7<4[8:1],7/2-6[8:1],
{8}2-4[8:1],5,2,8,{4}3>8b[8:1],{24}8bv3[8:1]/3b-6[8:1],7x,6x,5x,,,{4}3b,
{8}2,3>8b[8:1],{24},,,8bv3[8:1]/3b-6[8:1],7x,6x,{8}5x,3b,
,2,{32}1x,E2,B2,B3,{8}E4,{4}6h[8:1]/5h[8:1],6h[8:1]/5h[8:1],
{16}3,4,{8}3,2,2,{4}5-1b[8:1]/4z8[8:1],5/4,
{16}6,5,{8}6,7,7,{4}4pp4[4:1],4-1[8:1]*-8[8:1],
,7-1[8:1]/2-6[8:1],{2}7/2,
{16}1,8,1,8,{24}2x,3,4,8,,,7bx/1bx,6/2,{12}5/3,,{4}7/1-5[8:1],
{8}1-3[8:1],4,1,6,{4}7-2[8:1]/2v5[8:1],2/7-3[8:1],
{8}7-5[8:1],5,7,2,{4}1/6<1b[8:1],{24}1b-6[8:1]/6b-3[8:1],2,3,4,,,{4}6b,
{8}7x,6<1b[8:1],{24},,,1b-6[8:1]/6b-3[8:1],2,3,{8}4,6b,
,7,{48}8x,E8/E1,B7/B1,B6/B2,{6}E6/E3,3h[8:1]/5h[8:1],{12},{4}4h[8:1]/6h[8:1],
{8}3/4,2,3/4,2,{4}6-4[8:1]/3-7[8:1],6/3,
5-8[8:1]*v2b[8:1],5,{8}1h[8:1],7,1h[8:1],5,
8/4,8v3[8:1]/4-7[8:1],{16},,,,,,,,6,5,{8}8,
{16}3,4,{8}1,{4}E8fh[4:1]/B7h[4:1]/B8h[4:1],2b-4[8:1],{8}6-8[8:1],5>2q6b[8:3],
{4}6x,1<6[8:1],{8}1x,5-8[8:1],3,5x,
,1-3[8:1],4,1,8<5[8:1],5-2>4-7[8:3],{4}8,
1,3-7-5[4:1],{8}3x,8-2[8:1],,4xqq8b[8:3],
,,,,{4}7b-5[8:1],{8}3-1[8:1],4<7p3b[8:3],
{4}3x,8>3[8:1],{8}8x,4-1[8:1],6,4x,
,8-6[8:1],5,8,1-3[8:1],1,4-6[8:1],4,
{4}2-6-1[4:1],{8}8,8-4b[8:1],,3-8>2-6[8:3],,5h[8:3],
{4},,{48}5bx/8x,{96}D5/E5,7x,{48}A4/B4,6xh[16:23]/D4/E4,A3/B3,D3/E3,A2/B2,D2h[48:65]/E2h[48:65],{1},{4},,{16},{48},{4}7,
{48}5bx/6bh[4:5],E5/D5,B4/A4,E4/D4,B3/A3,E3/D3,A2/B2,E2h[48:53]/D2h[48:53],{1},{4},,,{16},{48},{8}4/3,
2,6/5,7,
{16}3,4,{8}2,{16}6,5,{8}7,1x/2x,4,1x/2x,4-8[8:1],
,7b/A4f,{24},,,,,,7b,6,5,1,,,2b,3,4,8,,,6b,
5,4,1,,,3bx,4,5,6,7,8,{8}1-5b[8:1],5-1[8:1],7,7bw3b[8:1],
,7b,{24},,,,,,1bxh[256:1],2xh[256:1]/8xh[256:1],7xh[256:1]/3x-6[12:41],4xh[256:1]/6xh[256:1],{3}5xh[256:1],
{6},,,,,,,,,,,,,,,{2}8,
{4}8h[8:1],8,{24}8b,1xh[256:1]/7x-2[24:83],2xh[256:1]/6xh[256:1],3xh[256:1]/5xh[256:1],{3}4xh[256:1],
{6},,,,,,,,,,,,,,,{2}4,
{4}4h[8:1],4h[8:1],
E
