&title=Break your world
&artist=佐咲纱花
&first=-0.05
&des=8qq8/1pp1
&lv_5=13+
&inote_5=(184){4},,4/6,5/3qq5[8:5],
,7,{8},8qq1[8:5],,,{4}1,
2,,4/3qq5[8:5],
,6,{8},8qq1[8:5],,,{4}1,
2,,3qq8[1:1]/4q7[1:1],
{1},{4},{8},{16}1,
8,{4}1,{8}7/2,{16}3,5,
4,6,{8}5,8/7,8/7,2/1,2/1,,5/4,
6/3,7/2,{4}8-6[8:1]/1-3[8:1],,4-1[8:1],
6/4,{8}5-8[8:1],2,{4}5,4-1[8:1],
6/4,{8}5-8[8:1],2,{4}5,4-8[8:1],
6/4,{8}5-1[8:1],2,{4}5,4-8[8:1],
6/4,{8}5-1[8:1],2,{4}5,3-6[8:1],
8/3,{8}7-2[8:1],5,{4}7,3-6[8:1],
8/3,{8}7-2[8:1],5,{4}7,3<6[8:1],
8/3,7>2[8:1],{8}2,4-8[8:1],,6-1[8:1],
,2-5[8:1],,8,{4}8,7/4V62[2:1],
7,7,7,6/1V73[2:1],
6,6,6,5/2V48[2:1],
5,5,5,6/1V37[2:1],
6,6,6,1/8qq5[2:1],
{8}2,2,,3,{4}3,5/4qq1[2:1],
{8}6,6,,7,{4}7,1/8-4[8:1],
3,5/1-5[8:1],{8}6,8v6[8:1]*v2[8:1],,8-4[8:1],
,8,,5h[8:1]/1h[8:1],{32},,,,6/2,7/3,{16}4/8,,,{8}5,
4/7,3,5/2-5[8:1],6,7/2,8>4[4:1],,4<8[4:1],
,8,,1-5[8:1],2,3/1,,2,
5/3,6,4/7-4[8:1],3,2/7,1<5[4:1],,5>1[4:1],
,1-5[8:1],,7,{4}7,{8}5/3h[8:1],4-8[8:1],
,4/7,,1,5/2,6,4/7h[8:1],5-1[8:1],
,5/2,,8,4/7,3,{4}6/2<7[4:1],
7<4[4:1],4>1[4:1],{8}1pp1[2:1],8qq8[8:3],,,,,,,{4}8/1,
7/2q7[8:3],
{8},8,{4}8h[4:1],1h[4:1],3q7[8:3],
{8},2,{4}2h[4:1],8h[4:1],6>3[8:3],
{8},7,{4}7h[4:1],{8}2,8qq8[8:3]/1pp1[8:3],,,,,,,{4}1/8,
{8}2/7,{16}4,5,
{8}3,6,8/1,2,5/6,7,8/2,{16}6,4,
{8}5,3,1/8,7,6/4,3,{4}5/2-6[8:1],
2b/8-4[8:1],{8}8,2b-6[8:1],,2b/8,,,{4}2b-6[8:1]/8b-4[8:1],
8b/2b,{8}3,1h[8:1]/7h[8:1],{16},,6,5,
{8}7,{16}3,4,{8}2,1/8,7/2,6/3,,5-1[8:1]*-1[8:1]`4-6[8:1],
,4,{32},,,,,,,,8,7,6,5,4,3,2,1,{4}8>3[8:1],
5-1[8:1],7-3[8:1],{8}2,2h[4:1],,4,
5-1[8:1],6,{4}7h[4:1],2,3/1<5[16:3],
4-8[8:1],2-6[8:1],{8}7,7h[4:1],,5,
4-8[8:1],3,{4}2h[4:1],7,{8}7-3[8:1],2<4[4:1],
7,2,,8-4[8:1],7,6,,6<1[8:1],
1>4[8:1],6,,,1,2,3b/4,6/5b,
8b/7,2b/1,,5b/4b,6b/3b,2bv4[4:1]/7bV51[4:1],,,,,{4}8h[4:1],
{32},1,2,3,4,5,6,7,{4}8>4[16:3],
5-1[8:1],6<3[4:1],{8}2,4h[4:1],,5,
6<3[4:1],7,{4}8h[4:1],,4/1<5[16:3],
4-8[8:1],3>6[4:1],{8}7,5h[4:1],,4,
3,2,1/4-8[8:1],1h[8:1],{32},,,,,,,,2,3,{16}4h[16:3],{8}7,
7,{32}3,2,{16}1h[16:1],{8}5,5h[8:1],2h[8:1],{32}6,7,{16}8h[16:5],,,{8}4,
4,{32}7/3,6/2,{16}5/1-5[8:1],,,{8}1,{4}6,{16}8,7,6,5,
3,2,1,8,4,5,6,7,1-5[8:1],2,3,4,{4}5,
2>5[8:1],2/6,{8}8,8,{16}2b,5,3,6,
4,7,2b,5,3-8[8:1],6,4,7-4[8:1],{8}3b,7b>6[2:1]*>6[2:1],,,,,,,{4}8h[8:1],
{8}2/1,3,
8/7,6,2/5,3,3,6/5,7,3/4,
2,8/7-4[8:1],,5,3,1h[4:1],,6,
3/4,2,6/5,7,1,3/4,2,5/6,
7,2/4-8[8:1],,4,{16}1,2,3,4,{8}5/6,{16}7,8,
{8}7,{16}2,1,{8}2,{16}5,4,{8}6,{32}2b/8h[16:1],3,{16}4,{32},,,,7b/1h[16:1],6,{16}5,
{32},,,,8b/2b,7/3,6/4,5,,,,,{8}7bv4[8:1]/1bv4[8:1],5b/3b,7bqq8[8:3]/1bpp8[8:3],,,,,,,8b/2b,
4b/6b,
E
