&title=DESTRUCTION 3,2,1
&artist=Normal1zer vs. Broken Nerdz
&first=0.03
&des=MeowHell
&lv_5=14+
&des_5=MeowHell(14.8)
&inote_5=
(321.321){4},,,,{2}6,
4,
{4}3,4,2,1,
8h[2:1],{16}E3,B3,{8}B4,,,{4}6,
{8}3h[4:1],,,4,{4}3,6,
{2}3,5,
{4}6,5,7,8,
{12}E3,B3,B4,E8,B7,B6,A1,E2,B2,E6,B5,B4,
{2}3xh[4:1],{4}6,4,
{2}5,3,
{4}2,3,1,8,
7h[2:1],{16}B2,B3,{8}E4,,,{4}5,
{8}3h[4:1],,,4,{4}3,5-8-3-6-1-4-7-2-5[1:6],
{1}2bh[1:6],
,,,,,,{16}E1,
E2,E3,E4,E5,E6,E7,E8,{2}E1f,
{4}6/5,6/5,6/5,6/5,
6/3,6/3,6/3,{8}4/5,5/4,
{4}4/5,3/4,5/6,7/2,
{8}8/1,8/1,{4}8/1,{8}7,7,2,1,
{16}2,3,{8}4,{4}6,7/5,4/2,
{8}8/1,8/1,{4}8/1,{16}2,3,{8}4,{16}7,6,{8}5,
{4}2,{8}2,4,,4,{4}5,
{8}5,7,4,6,{16}3,2,1,8,7,6,,,{8}5/4,
5/4,{4}5/4,7/5,6/4,
5/3,4/2-7[8:1],{16},,,,,,,,1,
2,{8}3,{4}7,6/5,4/3,
{16}5,6,7,8,4,3,2,1,,,,,,,,,{8}6,
6,4,4,5,5,3,3,
{16}7,6,{8}5,{16}1,2,{8}3,{16}8,7,6,5,4z8-2[1:1],3,2,1,
{1}8h[1:1],
{2},Ch[4:1],
{4}6h[8:1],6h[8:1],6h[8:1],6h[8:1],
6h[8:1]/5h[8:1],6h[8:1]/5h[8:1],6h[8:1]/5h[8:1],6h[8:1]/5h[8:1],
6h[8:1]/5p8>1pp4[4:7],6h[8:1],6h[8:1],6h[8:1],
7h[8:1],7h[8:1],7h[8:1],7h[8:1],
8h[8:1],{8}8h[8:1],1,8h[8:1],1,8h[8:1],1,
8h[8:1],1,8h[8:1],1,8,1,8,1,
{4}7-3[8:1],7,{8},2,,6,
6,5,{16},,7/E2,E3,E4,E5,E6,E7,,,,,5x,
4x,5x,4x,{4}5xh[8:1],5xh[8:1],{8}5xh[8:1],4x-1v3>2v4[8:9],
{4}6xh[8:1],6xh[8:1],6xh[8:1],5xh[8:1],
5xh[8:1],5xh[8:1],{8}6xh[8:1],4xv3-1[4:3],{4}6xh[8:1],
7xh[8:1],7xh[8:1],8xh[8:1],8xh[8:1],
{16}1x/7xh[8:1],2x,3x,4x,{4}7xh[8:1],7xh[8:1],5xs1-3[4:3],
6xh[8:1],6xh[8:1],6xh[8:1],6xh[8:1],
{8}2x,4,3x,7,5,6x,3,3x,
4,6,6,5,{2}7b,
4h[8:1]/5h[8:1],{8}1,1,1,1,
1,1,1,1,1,1,{4}1bh[16:1],
{8}8,8,8,8,8,8,8,8,
{4}8b-4[8:1],2bq5[2:1],{2}7b,
{8},,6,6,2,2,8,8,
{16}1b,2,3,4,{8}6,6,3,3,{16}8b,7b,{8}6b,
{4}Cf,B6/B8/B2/B4/Cf,Cf/B7/B1/B3/B5,Cf/B6/E7/E1/B1/E5/B5/B2/E3/B8/B7/B3/B4,
,,,,6x/5x,
4x/2x,{16}6x,5x,6x,5x,{4}6xh[8:1],
{16}3x,4x,3x,4x,{4}3xh[8:1],7x,{16}1bx,2bx,3bx,4bx,
{4}6xh[4:1],{8}4,5h[4:1],,3,4q7[4:3],2,
{16},,,,,,,,,,,,,,,,1x,
2x,3x,4x,8x,7x,6x,5x,2x,3x,4x,5x,1x,8x,7x,6x,
3x,4x,5x,6x,7x,8x,1x,2x,{32}3x,D4,4x,D5,5x,D6,6x,D7,7x,D8,8x,D1,1x,D2,2x,D3,
{1}3bxh[1:1],
8xh[2:1],
4bV68V24z8-4[4:13],
{4},,,,,,,8bxs4b[2:1],
,,,,{1}4bV68V24[2:5]*V28V64[2:5],
{8},,,,,,,,,,,,,,,,6,
6,4,4,5,5,3,3,
{4}7,{8}7,5,,5,{4}4,
{8}4,2,,2,8,7,6,5,
{4}4,3,{2}5-1[1:1],
{8},,,,,,,,3,
4,3,6,5,6,3,4,
2,{16}7,6,5,4,1,2,3,4,5,6,7,8,1,2,
{1}3s7[2:1],
Cfh[2:1],
{16}8b,7,6,5,,,8b,7,6,5,,,8b,7,6,5,
,,8b,7,6,5,,,{8}2,2,4,4,
{16}1b,2,3,4,,,1b,2,3,4,,,1b,2,3,4,
,,1b,2,3,4,,,{8}7,7,5,5,
{16}6b,5,4,3,,,7b,6,5,4,,,8b,7,6,5,
,,1b,8,7,6,,,{8}3,3,5,5,
{16}3b,4,5,6,,,2b,3,4,5,,,1b,2,3,4,
,,8b,1,2,3,,,{2}7bx/5bx,
{16}6b/1h[4:1],5,{8}4,{16},,6b/1h[4:1],5,{4}4,{16}6b/1h[4:1],5,{8}4,
{16},,6b/1h[4:1],5,{4}4,7,4,
{16}3b/8h[4:1],4,{8}5,{16},,3b/8h[4:1],4,{4}5,{16}3b/8h[4:1],4,{8}5,
,,,,4,5,3,6,
{16}7/3h[2:1],6,5,4,,2,1,8,7h[2:1],4,5,6,,8,1,2,
3h[2:1],6,5,4,,2,1,8,7,6/2,5/1,4/8,3/7,2,1,8,
{1}7bh[1:2],
{2},,3bx,
{8}4x,,,5x,
{24},,,,{6}6x,{12},7x,{24},,,{8}8x,{24},,{6}1x,
{8}2x,3x,{12}4x,5x,6x,7x,8x,1x,{48}2x,,,3x,,,{16}4x,5x,
6x,7x,8x,1x,{24}2x,3x,4x,5x,6x,7x,8x,1x,2x,3x,4x,5x,{16}6x,7x,8x,1x,
2x,3x,4x,5x,{12}6x,7x,8x,1x,2x,3x,4x,{24},{8}5x,
6x,7x,{24},,{12}8x,,,1x,{24},,,,,{8}2x,
,,{4}3x,,4x,
{8},,,5x,,,,,{2}6/4,
{8}5,,,3,
4,2,{4}2,5,4,
{8},7,{4}7,1,2,
{8}8,7,6,5,{4}4,2,
{2}3/5,{8}4,,,6,
5,7,{4}7,4,5,
{8}2,4,3,5,3,6,2,7,
{12}1,8,1,8,1,8,{8}1,2,3,4,
{2}5/C,E8,
E7,{4}E6,B5,
{2}E5,E4,
{8}E3,,,E2,,E1,{4}B8,
B6,B5,B4,B3,
B2,B1,B8,B7,
{1}Cfh[1:1],
B6/B8/B2/B4,
{4}7bh[8:3],5,4h[8:3],6,
5h[8:3],3,2h[8:3],6,
7h[8:3],3,4h[8:3],6,
{8}5,3,4,2,5,3,6,4,
{4}7h[8:3],1,2h[8:3],8,
1h[8:3],3,4h[8:3],8,
{8}7,5,6,5,7,4,6,3,
{12}5,4,5,4,5,4,{8}5,6,7,8,
{4}1b-5[4:7],3,3,3,
3,3,3,3,
3-7[2:1],6,6,6,
{8}E6,B1,E7,E4,E8,B5,E1,B2,
{4}6,6,3,{8}5,4,
6,2,{4}2,8/7,5/6pp4[2:3],
{1}3b,
{2},Cfh[4:1],
{4}8x-4[16:1],2x-6[16:1],5x-8[16:1],1x-5[16:1],
7x-4[16:1],2x-7[16:1],6x-1[16:1],3x-6[16:1],
7x-3[16:1],4x-8[8:1],{2}7x-4[16:1],
{8}3x,3x,5x,5x,1x,1x,7x,7x,
{4}4x-8[16:1],6x-2[16:1],1x-4[16:1],5x-1[16:1],
3x-8[16:1],6x-3[16:1],2x-5[16:1],6x-1[16:1],
3x-7[16:1],8x-4[8:1],{2}2x-5[16:1],
{16}8x,7x,6x,5x,4x,3x,2x,1x,8x,7x,6x,5x,4x,3x,2x,1x,
{4}8x-4[16:1],2x-6[16:1],5x-8[16:1],1x-5[16:1],
7x-4[16:1],2x-7[16:1],6x-1[16:1],2x-5[16:1],
7x-3[16:1],4x-8[8:1],{2}7x-4[16:1],
{8}2x,2x,6x,6x,4x,4x,8x,8x,
{4}1x-5[16:1],7x-3[16:1],4x-1[16:1],8x-4[16:1],
2x-5[16:1],7x-2[16:1],3x-8[16:1],7x-4[16:1],
{8}2xh[4:1],,,3xh[4:1],,,{4}4xh[4:1],
{8},5xh[4:1],,,{2}6b,
{8}8b,4,4,6b,2,2,8b,3,
3,6b,1,1,{4}7b,3b,
{8}2b,6,6,4b,8,8,2b,6,
4b,4b,5b,5b,3b,3b,7b,7b,
{4}2b,{8}2b,4,2b,5,2b,6,
2b,7,2b,8,2b,1,{16}2b,3b,{8}4b,
{4}6h,{8}4h,4h,5h,5h,{4}2h,
{8}7h,5h,6h,4h,5h,5h,3h,4h,
2b,2b,5b,5b,3b,3b,6b,6b,
{1}4bv1[4:1]*v7[4:1],
{8}7b,7b,3b,3b,{12}8b,7b,6b,2b,3b,4b,
{4}E7,B1,B4,C,
{8}8b,8b,2b,2b,7b,7b,{16}1b,2b,3b,4b,
{8}6b,6b,4b,4b,{16}5b,6b,7b,8b,4b-8-6b[2:3]*-8-2b[2:3],3b,2b,1b,
{1},,{16}1bx,
8bx,1bx,8bx,1bx,8bx,1bx,8bx,1bx,8bx,1bx,8bx,1bx,8bx,1bx,8bx,
1bx,2bx,3bx,8bx,7bx,6bx,2bx,3bx,4bx,7bx,6bx,5bx,8bx,1bx,2bx,3bx,
{1}4bxh[1:1],
5bxs1b[8:3],
{8}7b,5,6,2,4,3,6,6,
4,7,7,5,6,4,5,3,
4,2,6,5,7,4-2v1b[8:5],{4}8xh[4:3],
{8},,,,,,,,3,
4,3,6,5,6,2,4,
2,7,5,7,{16}1,2,3,4,5,6,7-3b[8:7],8,
{1}1b-5[4:3],
{16},,,,,,,,,,,,,,,,1b/8h[4:1],
2,3,4,,,1b/7h[4:1],2,3,4,,,1b/6h[4:1],2,3,4,
,,1b/5h[4:1],2,3,4,,,{4}2b,7b,
{16}8b/1h[4:1],7,6,5,,,8b/2h[4:1],7,6,5,,,8b/3h[4:1],7,6,5,
,,8b/4h[4:1],7,6,5,,,{4}7b,3b,
{16}1b/7h[4:1],2,3,4,,,1b/7h[4:1],2,3,4,,,2b/8h[4:1],3,4,5,
,,2b/8h[4:1],3,4,5,,,{4}2b,6b,
{16}8b/2h[4:1],7,6,5,,,8b/2h[4:1],7,6,5,,,7b/1h[4:1],6,5,4,
,,7b/1h[4:1],6,5,4,,,{2}8bx/3bx,
{16}8b,7,6,5,1b,2,3,4,7b,6,5,4,8b,1,2,3,
8b,7,6,5,1b,2,3,4,7b,6,5,4,2b,3,4,5,
8b,7,6,5,4b,3,2,1,8b,7,6,5,4b,3,2,1,
{1}8b-6v5b[4:1],
{16}2b/6bh[2:1],3,4,5,,7,8,1,2bh[2:1],5,4,3,,1,8,7,
6bh[2:1],3,4,5,,7,8,1,2,3/7b,4/8b,5/1b,6/2b,7,8,1,
{1}2h[2:1],
Cf/E7/E3/B2/B7/B6/B3,
{16}8bx,7x,6x,5x,8bx,7x,6x,5x,8bx,7x,6x,5x,8bx,7x,6x,5x,
8bx,1x,2x,3x,8bx,1x,2x,3x,8bx,1x,2x,3x,8bx,1x,2x,3x,
8bx,7x,6bx,5x,4bx,3x,2bx,1x,8bx,7x,6bx,5x,4bx,3x,2bx,1x,
{24}8bx,7bx,6bx,5bx,4bx,3bx,2bx,1bx,8bx,7bx,6bx,5bx,4bx,3bx,2bx,1bx,{48}8bx,D8f,7bx,D7f,6bx,D6f,5bx,D5f,4bx,D4f,3bx,D3f,2bx,D2f,1bx,D1f,
{1}8bxh[8:15],
{8},,,,,,,,8bx,
8bx,8bx,8bx,8bx,8bx,8bx,8bx,
{16}7bx,6bx,5bx,4bx,8bx,1bx,2bx,3bx,8bx,7bx,6bx,5bx,1bx,2bx,3bx,4bx,
{1}Cf,
E
