&title=City Never Sleeps
&artist=Dirty Androids
&first=0.069
&lv_5=14
&des=The Musical Ghost
&inote_5=(178),,,,
{8}4h[8:15]/5h[8:6],,,,,,,6h[8:15],,,,,,,,,2h[8:6],,,,,,,3x/7x,,,8x/4x,,,,,,
{8}5h[8:14]/4h[8:6],,,,,,,3h[8:15],,,,,,,,{16}5x,6x,{8}7h[8:6],,,,,,,6x/2x,,,1x/5x,,,,,,
3xh[8:5],5,,5,,5,3,5,5xh[8:5],3,,3,,3,7,3,3xh[8:5],7,,7,,7,1,7,7xh[8:5],1,,1,,1,7,1,
{4}8x/2x,1/3,2/4,3/5,4/6,5/7,6/8,7/1,
{8}8/2,8,4/6,4,1/3,1,7/5,5,
{16}2x,1,3,8,4,7,5,6,5w1[8:1],,4/6,,5b,,,,
{8}7x-4[8:1],2,7,2-5[8:1],8,2,8-3[8:1],1,8,1-6[8:1],7,1,7-1[8:1],3,7,3-5[8:1],6,3,6-2[8:1],3,6,3-7[8:1],6,3,5,4,5,5h[8:2],,{16}4,6,3,5,2,4,
{8}1x-5[8:1],4,1,8-4[8:1],5,8,2-5[8:1],6,2,7-4[8:1],3,7,3-8[8:1],5,3,6-1[8:1],4,6,4-8[8:1],5,4,5-1[8:1],4,5,
{8}4,4/8,3/7,2/6,,5hx[8:3]/1x,{32}D1,D8,D7,D6,D5,D4,D3,D2,
{8}D1f,,C,{16}3,8,,2-5[200#8:1],1-6[8:1],,2,,1,,
{8}3,5,3,{16}6,1,,7-4[200#8:1],8-3[8:1],,7,,8,,
{8}6,4,6,{16}3,7,,2-6[200#8:1],8-4[8:1],,2,,8,,
{8}3,5,3,{16}6,2,,7-3[200#8:1],1-5[8:1],,7,,1,,
{8}7,3,7,{16}3,8,,2-4[200#8:1],1-5[8:1],,2,,1,,
{8}2,6,2,{16}6,1,,7-5[200#8:1],8-4[8:1],,7,,8,,
{8}6,3,6,{16}2,7,,1-5[200#8:1],8-4[8:1],,1,,8,,
,,1x/3x,,,8x/6x,,,{16}4x,5,6,7,8/4x,1/5,2/6,3/7,
{8}4b/8b,,C,{16}7,4,,6-1[200#8:1],5-2[8:1],,6,,5,,
{8}7,1,7,{16}2,5,,3-8[200#8:1],4-7[8:1],,3,,4,,
{8}2,8,2,{16}7,3,,6-2[200#8:1],4-8[8:1],,6,,4,,
{8}7,1,7,{16}2,6,,3-7[200#8:1],5-1[8:1],,3,,5,,
{8}3,7,3,{16}7,4,,6-8[200#8:1],5-1[8:1],,6,,5,,
{8}6,2,6,{16}2,5,,3-1[200#8:1],4-8[8:1],,3,,4,,
{8}2,7,2,{16}6,3,,5-1[200#8:1],4-8[8:1],,5,,4,,
{8}7-4[8:1],2-5[8:1],7,2,,6/2,7/3,8/4,
{1}1qq5<1-6b[4:18]/5qq1>5-2[4:18],,,,,
{8},,,,,,,E1,,B7,B2,,E7,E3,,B5,B4,E5,,,D5,,,,
8-5[4:6]*>5[4:6],,,,,,,,,,,,,,,,7-3[8:11]/6-1-4[8:11],,,,,,,,,,,,,,Ch[8:1],,
{8}1/2,1/2,,8/3,,7/4,,6h[8:5]/5qq2[8:5],,,,,,,,,
7/8,,1/6,1/6,,5/2,,4pp7[8:5]/3h[8:2],,,B1/B2/E2,,,,,,
1/8,1/8,,2/7,,3/6,,4qq1[8:5]/5pp8[8:5],,,,,,,,,
7h[4:1]/2h[4:1],,,3/8,,3/8,,5h[4:1]/4h[4:1],,,1h[2:1]/6h[2:1],,,,,,
6xh[8:5],4,,4,,4,6,4,4xh[8:5],6,,6,,6,2,6,6xh[8:5],2,,2,,2,8,2,2xh[8:5],8,,8,,8,2,8,
{4}1x/7x,8/6,7/5,6/4,5/3,4/2,3/1,2/8,
{8}1/7,1,5/3,5,8/6,8,2/4,4,
{16}7x,8,6,1,5,2,4,3,4w8[8:1],,5/3,,4b,,,,
6x,5,6,5,6,,3,4,3,4,3,,7/4,,5/6,,
2,1,2,1,2,,7,8,7,8,7,,5/2,,3/4,,
6,5,6,5,7,,3,4,3,4,2,,7/8,,1/6,,
2,1,2,1,3,,8h[8:1]/4h[8:1],,,,6,7,8,1,2,3,
4xb,5,4,5,4,,6,3,6,3,6,,1/2,,8/3,,
2,7,2,7,2,,8,1,8,1,8,,3/6,,4/5,,
6,5,6,7,6,,3,4,3,2,3,,1/8,,2h[8:1]/7h[8:1],,,,3x/6x,,3hx[8:2]/6hx[8:1],,,,1x,8,7,6,51,2,3,4,
7bx-4[12:1],8,6,8,7,,2-5[12:1],1,3,1,2,,B8/B7,,B2/B1,,
3-8[12:1],4,2,4,3,,6-1[12:1],5,7,5,6,,B3/B4,,B5/B6,,
2>5[12:1],1,3,8,2,,7<4[12:1],8,6,1,7,,B1/B8/E1,,3/6h[8:5],,
,,7,8,1,2,3,4,
{8}5h[8:1],7h[8:1],4h[8:1],8h[8:1],
2-4[8:1],1-5[8:1],2,1,,7-5[8:1],8-4[8:1],7-3[8:1],8-2[8:1],
7-5[8:1],8-4[8:1],7-3[8:1],8-2[8:1],7,8,7,
1/6>3[8:1],,3,1<6[8:1],,6,4>1[8:1],,1,7<4[8:1],,4w8[8:1],,
{32}4x,Cf,,,{8},,
{16}1x,,8,,2,7,2,7,3,6,3,6,4,5,4,5,3h[4:1],,4,,6h[8:1],,4h[4:1],,,,3h[8:1],,
2h[8:1],,1h[8:1],,
2,4,3,5,4,6h[16:3],,,
2,3,2,3,2,,7,6,7,6,7,,2,3,2,3,2,,1-5[8:1]/8-4[8:1],,2/7,,
{32}1/8,B8/B1,C,B5/B4,
{16},,,,7h[8:1],,6h[8:1],,5h[8:2],,2,3,4h[4:1],,8,7,
6x,5,7,4,8,3,1,2,4,3,5,2,6,1,7,8,
1b/6b,,,,3/Cf,,3b/8b,,,,6/Cf,,6b/1b,,3b/8b,,
E
