&title=METHOD_HYMME
&artist=stellatram/奈雪ニーカ
&first=0
&des=luvlily
&lv_5=13
&inote_5=(105)
{1},
{16}17,,,
{16},7,,6>2[8:3],,,,3,,2<6[8:3],,,,7,,6>2[8:3],,,,3,,2<5[8:3],,,,6,,5>8[8:3],,,,1,,8<3[8:3],,,,4,,3,
,,,,,2,,3,
{16},4,,5/7h[8:3],,,,,,2^5[8:2],,,,1p7[8:3],,1,
{16},,,,,,,6,,5,,4qq7[8:3],,,,,
{16},,,,,,,
{16}4b/5b,,3,25,,6,7V58[16:3]/3,,48,,37,,2,2,,17,
{16}2/8h[8:1],,4,,26,,7,48,,2,1V36[16:3]/5,,27,,6,,
{16}8,8h[8:1],,5,7,4,6,3,
45,,6,47,,3,5/1V38[16:3],,
{16}48,,15,,7,6,,58,4/1h[8:1],,7,,46,,8,
{32}2,1,2,,
{16}8,8h[8:1],,5,,41,83,72,61,,
{16}72,3-5[8:1]/5,,5-2[8:1],,2V48[4:1],,6,,8V24[4:1],,6,,4V62[4:1],,
{16}8,,2V48[4:1],,8,,,,,,7-5[8:1],,5-8[8:1],,8V62[4:1],,4,,2V86[4:1],,4,,6V48[4:1],,
{16}2,,8V62[4:1],,2,,,,
{16},,3-5[8:1],,5-8[8:1],,8V26[4:1],,7,,6V82[4:1],,4,,2V48[4:1],,
{16}6,,8V26[4:1],,6,,,,,,5V71[4:1],,2V46[4:1],,1V37[4:1],,
{16}2,,,,,,,,1-3[8:1],,3V15[4:1],,1,,,,
{16}4V61[4:1],,,,1,,3V58[8:5],,4V26[8:7],,,,,,,,
{16},,,,,,,,,,,,,,,,
{16}28,,,16,,35,26,,18,,37,,4pp1[16:5]/6qq1[16:5],,,,
{16},,,,,,,,
1<1[2:1]*<7[16:2]*<6[16:3]*<5[16:4]*<4[16:5]*<3[16:6]*<2[16:7],,,,,,
3>3[2:1]*>1[16:2]*>8[16:3]*>7[16:4]*>6[16:5]*>5[16:6]*>4[16:7],,,,,,
5>5[2:1]*>3[16:2]*>2[16:3]*>1[16:4]*>8[16:5]*>7[16:6]*>6[16:7],,,,,,
7<7[2:1]*<5[16:2]*<4[16:3]*<3[16:4]*<2[16:5]*<1[16:6]*<8[16:7],,,,,,
1<5[4:1]*<7[8:1]*<6[16:3],,,6>2[4:1]*>4[8:1]*>3[16:3],,,
3>7[4:1]*>1[8:1]*>8[16:3],,,8<4[4:1]*<6[8:1]*<5[16:3]*<3[16:5]*<2[16:6]*<1[16:7],,,
5b<1[16:4],,,,,,,,,,,,
2pp7[16:5]/7,,,,,,6pp2[16:5],,,,,,
5qq8[16:5],,,,,,1qq3[16:5],,,,,,
3pp8[16:5],,,4,,,1pp6[16:5],,,,,,
8qq2[16:5],,,,,,3pp4[16:3],,,,,,
8>8[2:1]*>2[16:2]*>3[16:3]*>4[16:4]*>5[16:5]*>6[16:6]*>7[16:7],,,,,,
6<6[2:1]*<8[16:2]*<1[16:3]*<2[16:4]*<3[16:5]*<4[16:6]*<5[16:7],,,,,,
4<4[2:1]*<6[16:2]*<7[16:3]*<8[16:4]*<1[16:5]*<2[16:6]*<3[16:7],,,,,,
2>2[2:1]*>4[16:2]*>5[16:3]*>6[16:4]*>7[16:5]*>8[16:6]*>1[16:7],,,,,,
8>4[4:1]*>2[8:1]*>3[16:3],,,3<7[4:1]*<5[8:1]*<6[16:3],,,
6<2[4:1]*<8[8:1]*<1[16:3],,,1>5[4:1]*>3[8:1]*>4[16:3]*>6[16:5]*>7[16:6]*>8[16:7],,,
4b>8[16:4],,,,,,,,,,,,
6pp3[16:5]/3,,,,,,2pp6[16:5],,,,,,
1qq4[16:5],,,,,,5qq7[16:5],,,,,,
7pp4[16:5],,,8,,,5pp2[16:5],,,,,,
4qq6[16:5],,,,,,7pp8[16:3],,,,,,
{16}3h[8:3],,,,,,4h[8:3],,,,,,5h[8:3],,,,
{16},,7h[8:3],,,,,,8>4[4:1],,,,,,5h[8:3],,
{16},,,,6h[8:3],,,,,,7h[8:3],,,,,,
{16}8h[4:3],,,,,,,,,,,,1>8[8:3],,,,
{16},,8>7[8:3],,,,,,
{4}7bqq1[4:3],
{128},,,,,,,,,,,,,,,,,,,,,,,,,,
(100)
{8},,,,,{16}3,,4<8[8:3],,,,7,,8>4[8:3],,,,3,,4<8[8:3],,,,7,,8>5[8:3],,,,4,,5<2[8:3],,,,1,,2>7[8:3],,,,6,,
{8}8h[8:3],,,5b-8[8:3],,,,,
1-4[32:7],3h[8:1],,3-6[32:7],5h[8:1],,5-8[32:7],7h[8:1],,7-2[32:7],1h[8:1],,
1,3-8[8:1],8-5[8:1]*-3[8:1],3-6[8:1],,,,6-1[8:1],1-4[8:1]*-6[8:1],4-7[8:1]/6,,,,
8V64[4:1],6,4,2V86[4:1],8,6,4V28[4:1],2,8,6-8[8:1],,
8-3[32:7],2h[8:1],,2-5[32:7],4h[8:1],,4-7[32:7],6h[8:1],,6-1[32:7],8h[8:1],,
8-3[32:7],2V41[4:1],,2-5[32:7],,,4-7[32:7],6V85[4:1],,6-1[32:7],,,8-3[32:7],3,1,2-5[32:7],4,5,4-7[32:7],8h[8:5],,,,,,
1V75[4:1],7-5[8:1]*-5[8:1],5,3V17[4:1],1-7[8:1]*-7[8:1],7,5V31[4:1],3-1[8:1]*-1[8:1],1,7V53[4:1],5-3[8:1]*-3[8:1],
3,1V75[4:1],7-5[8:1]*-5[8:1],5,3V17[4:1],1-7[8:1]*-7[8:1],7,5V31[4:1],3-1[8:1]*-1[8:1],1,7V53[4:1],,,2h[128:1],,,1h[218:1],,,
{8}3,4-1[8:5],5,7b,,,,,,
{8}7h[8:1],5h[8:1],3h[8:1],1h[8:1],
2-5[32:3],4-7[32:3],6-1[32:3],8-3[32:3],
,,,
3h[8:1],1h[8:1],7h[8:1],5h[8:1],7h[8:1],
1-4[32:3],3-6[32:3],5-8[32:3],7-2[32:3],
,,,,
6h[4:1]/8,,4,2h[8:1]/6,7-4[32:3],5-2[32:3],3-8[32:3],1-6[32:3],
,,,,
{16}18,,6,5,7-4[8:1],,4-8[8:1],,{8}8V62[4:1],2,3,,,1b/8b,,,
{8}5-8[32:3],7-2[32:3],1-4[32:3],3-6[32:3],5q1[32:3],2q6[32:3],7q3[32:3],4q8[32:3],,,,,2-5[32:3],4-7[32:3],6-1[32:3],8-3[32:3],2q6[32:3],7q3[32:3],4q8[32:3],1q5[32:3],
,,,,
4h[4:1],,8,6h[8:1]/2,4p8[32:3],7p3[32:3],2p6[32:3],5p1[32:3],
,,,,{16}45,,2,6,{8}8p5[8:1],8p6[8:1],8p7[8:1],8p8[8:1],,,4b,1b/5b,5b/1b,,,,E
&inote_6=(105)
{1},
{16}17,,,
{16},7,,6>2[8:3],,,,3,,2<6[8:3],,,,7,,6>2[8:3],,,,3,,2<5[8:3],,,,6,,5>8[8:3],,,,1,,8<3[8:3],,,,4,,3,
,,,,,2,,3,
{16},4,,5/7p5[8:3],,,,,,5p3[8:3],,,,1p7[8:3],,1,
{16},,,,,,,6,,5,,4qq7[8:3],,,,,
{16},,,,,,,
{16}4b/5b,,3,25,,6,7V58[16:3]/3,,48,,37,,2,2,,17,
{16}2/8h[8:1],,4,,26,,7,48,,2,1V36[16:3]/5,,27,,6,,
{16}8,8h[8:1],,5,7,4,6,3,
45,,6,47,,3,5/1V38[16:3],,
{16}48,,15,,7,6,,58,4/1h[8:1],,7,,46,,8,
{32}2,1,2,,
{16}8,8h[8:1],,5,,41,83,72,61,,
{16}72,3-5[8:1]/5,,5-2[8:1],,2V48[4:1],,6,,8V24[4:1],,6,,4V62[4:1],,
{16}8,,2V48[4:1],,8,,,,,,7-5[8:1],,5-8[8:1],,8V62[4:1],,4,,2V86[4:1],,4,,6V48[4:1],,
{16}2,,8V62[4:1],,2,,,,
{16},,3-5[8:1],,5-8[8:1],,8V26[4:1],,7,,6V82[4:1],,4,,2V48[4:1],,
{16}6,,8V26[4:1],,6,,,,,,5V71[4:1],,2V46[4:1],,1V37[4:1],,
{16}2,,,,,,,,1-3[8:1],,3V15[4:1],,1,,,,
{16}4V61[4:1],,,,1V74[4:1],,3V58[8:5],,4V26[8:7],,,,,,,,
{16},,,,,,,,,,,,,,,,
{16}28,,,16,,35,26,,18,,37,,4pp8[16:5]/6qq2[16:5],,,,
{16},,,,,,,,
1<1[2:1]*<7[16:2]*<6[16:3]*<5[16:4]*<4[16:5]*<3[16:6]*<2[16:7],,,,,,
3>3[2:1]*>1[16:2]*>8[16:3]*>7[16:4]*>6[16:5]*>5[16:6]*>4[16:7],,,,,,
5>5[2:1]*>3[16:2]*>2[16:3]*>1[16:4]*>8[16:5]*>7[16:6]*>6[16:7],,,,,,
7<7[2:1]*<5[16:2]*<4[16:3]*<3[16:4]*<2[16:5]*<1[16:6]*<8[16:7],,,,,,
1<5[4:1]*<7[8:1]*<6[16:3],,,6>2[4:1]*>4[8:1]*>3[16:3],,,
3>7[4:1]*>1[8:1]*>8[16:3],,,8<4[4:1]*<6[8:1]*<5[16:3]*<3[16:5]*<2[16:6]*<1[16:7],,,
5b<1[16:4],,,,,,,,,,,,
2pp7[16:5]/7,,,,,,6pp2[16:5],,,,,,
5qq8[16:5],,,,,,1qq3[16:5],,,,,,
3pp8[16:5],,,4,,,1pp6[16:5],,,,,,
8qq2[16:5],,,,,,3pp4[16:3],,,,,,
8>8[2:1]*>2[16:2]*>3[16:3]*>4[16:4]*>5[16:5]*>6[16:6]*>7[16:7],,,,,,
6<6[2:1]*<8[16:2]*<1[16:3]*<2[16:4]*<3[16:5]*<4[16:6]*<5[16:7],,,,,,
4<4[2:1]*<6[16:2]*<7[16:3]*<8[16:4]*<1[16:5]*<2[16:6]*<3[16:7],,,,,,
2>2[2:1]*>4[16:2]*>5[16:3]*>6[16:4]*>7[16:5]*>8[16:6]*>1[16:7],,,,,,
8>4[4:1]*>2[8:1]*>3[16:3],,,3<7[4:1]*<5[8:1]*<6[16:3],,,
6<2[4:1]*<8[8:1]*<1[16:3],,,1>5[4:1]*>3[8:1]*>4[16:3]*>6[16:5]*>7[16:6]*>8[16:7],,,
4b>8[16:4],,,,,,,,,,,,
6pp3[16:5]/3,,,,,,2pp6[16:5],,,,,,
1qq4[16:5],,,,,,5qq7[16:5],,,,,,
7pp4[16:5],,,8,,,5pp2[16:5],,,,,,
4qq6[16:5],,,,,,7pp8[16:3],,,,,,
{16}3h[8:3],,,,,,4h[8:3],,,,,,5h[8:3],,,,
{16},,7h[8:3],,,,,,8>4[4:1],,,,,,5h[8:3],,
{16},,,,6h[8:3],,,,,,7h[8:3],,,,,,
{16}8h[4:3],,,,,,,,,,,,1>8[8:3],,,,
{16},,8>7[8:3],,,,,,
{4}7bqq1[4:3],
{128},,,,,,,,,,,,,,,,,,,,,,,,,,
(100)
{8},,,,,{16}3,,4<8[8:3],,,,7,,8>4[8:3],,,,3,,4<8[8:3],,,,7,,8>5[8:3],,,,4,,5<2[8:3],,,,1,,2>7[8:3],,,,6,,
{8}8h[8:3],,,5b-8[8:3],,,,,
(200){4}1-4[16:11],3h[4:1],,3-6[16:7],5h[4:1],,5-8[16:7],7h[4:1],,7-2[16:7],1h[4:1],,
1,3-8[8:1],8-5[8:1]*-3[8:1],3-6[8:1],,,,6-1[8:1],1-4[8:1]*-6[8:1],4-7[8:1]/6,,,,
8V64[4:1],6,4,2V86[4:1],8,6,4V28[4:1],2,8,6-8[8:1],,
8-3[32:7],2h[8:1],,2-5[32:7],4h[8:1],,4-7[32:7],6h[8:1],,6-1[32:7],8h[8:1],,
8-3[32:7],2V41[4:1],,2-5[32:7],,,4-7[32:7],6V85[4:1],,6-1[32:7],,,8-3[32:7],3,3,2-5[32:7],5,5,4-7[32:7],8h[8:5],,,,,,
1V75[4:1],7-5[8:1]*-5[8:1],5,3V17[4:1],1-7[8:1]*-7[8:1],7,5V31[4:1],3-1[8:1]*-1[8:1],1,7V53[4:1],5-3[8:1]*-3[8:1],
3,1V75[4:1],7-5[8:1]*-5[8:1],5,3V17[4:1],1-7[8:1]*-7[8:1],7,5V31[4:1],3-1[8:1]*-1[8:1],1,7V53[4:1],,,2h[128:1],,,1h[218:1],,,
{8}3,4-1[8:5],5,7b,,,,,,
{8}7-1[32:3],5-7[32:3],3-5[32:3],1-3[32:3],
2-5[32:3],4-7[32:3],6-1[32:3],8-3[32:3],
,,,
2-8[8:1],8-6[8:1],6,7V13[4:1],1V35[4:1],3-5[8:1],5-7[8:1],6-8[8:1],1-3[8:1],
,,,,
3h[8:1]/7-3[16:3],,2,2,1v3[32:3],3v5[32:3],4v6[32:3],7v1[32:3],
,,,,1,7v5[32:3],5v3[32:3],4v2[32:3],1V37[16:3],,,,,1b/8b,,,
{8}5^7[8:1],7^1[8:1],1<3[4:1],2,3q1[8:1],1q7[8:1],8q6[8:1],5p3[4:1],,,,,1^3[8:1],3^5[8:1],5>7[4:1],6,7q5[8:1],5q3[8:1],4q2[8:1],1p7[4:1],
,,,,
7h[8:1]/3>7[4:1],,6,6,5p7[8:1],7p1[8:1],8p2[8:1],3q5[4:1],
,,,,6,4q2[8:1],2q8[8:1],1q7[8:1],6p4[4:1],,,,1b,1b/5b,5b/1b,,,,E
