&title=梅に鶯
&artist=r906
&first=0
&des=r516
&lv_5=13+
&inote_5=(140)
{1},
5pp6b[8:7]*qq4b[8:7],{8},,,E5,,E3/B2,,A8/E8/D8,
3,2,18,7,6-4[8:1],,3,2,
18,7,6-4[8:1],4-7[8:1],,2,3,45,
6,7,81,2,3-5[8:1],,6,7,
81,2,3-5[8:1],5-2[8:1],,7,6,54,
3,2,18,7,6-4[8:1],,4,3,
2-8[8:1],2,7-2[8:1],7,3-7[8:1],3,6-3[8:1],6,
1,2,35,6,7-1[8:1],,1,2,
35,6,7-1[8:1],1-6[8:1],,5,4,3,
82,7,64,3,2-8[8:1],,8,7,
64,3,2-8[8:1],8-4[8:1],,5,6,7,
81,2,34,5,6-1[8:1],,1,2,
34,5,6-1[8:1],1-5[8:1],,4,3,2,
18,7,65,4,3-8[8:1],,8,7,
65,4,3-8[8:1],8-3[8:1],,4,5,6,
{16}7b>3[16:3],,,,5,,,,4h[16:3],,,5h[16:3],,,6qq4[6:1],,
{8},8,,7^5[8:1],7,4^2[8:1],4,6^8[8:1],
6,,4<2[4:1],4,,3,3<1[4:1],3,
,2,2V46-8[4:1],2,,1,1,1-4[8:1],
,8,8,,{16}6h[16:3],,,5h[16:3],,,{8}4-6[8:1],
,2-4[8:1],2,7^2[8:1],,5,5h[4:1],,
8-5[8:1],,2,,{16}3h[16:3],,,4h[16:3],,,{8}5-3[8:1],
,7-5[8:1],,4-7[6:1],,2,3<1b[16:3],4,
,,6bx,6,{16}2h[16:3],,,4,3,,{8}3-5[12:1],
,8^3[8:1],,4,4,5,6^3[8:1],7,
8,,2-6[8:1],3-8[8:1],4,,6-2[8:1],7-4[8:1],8,,
2-6[8:1],3^8[8:1],4,,6,7<1[4:1],
,1,,,{16}35,,,5,4,,6,,
35,,,3,4,,{8}1-5[8:1],,8^3[8:1],8,4,
{16}4,,,6,5,,7,,64,,,4,5,,2,,
73,,,6,4,,8,,73,,,4,6,,1,,
{1}2p5[8:8]`7q4b[8:8],
{8},,,,,5,4-8[8:1],3,
{8}2b<5[8:2],2,5>8[8:2],4,4,,6<3[8:2],6,
{8}3<8[8:2],4,4pp3[16:5],,,1,8-4[8:1],,
{8}2>7[8:2],2,7>4[8:2],8,8,,6>1[8:2],6,
{8}1<4[8:2],8,8>3[32:5],,,6,5-1[8:1],4,
{8}3b>6[8:2],3,6>1[8:2],5,5,,7>4[8:2],7,
{8}4<1[8:2],5,5pp3[16:6],,,2,1-5[8:1],,
{8}2>7[8:2],2,7>4[8:2],8,8,,6-3[8:1],6,
{8}2-5[8:1],1,8-3[8:1],7,6-1[8:1],5,4-8[8:1],3,
{8}7b>4[8:2],7,4<1[8:2],5,5,,3>6[8:2],3,
{8}6>1[8:2],5,5qq6[16:5],,,8,1-5[8:1],,
{8}7<2[8:2],7,2<5[8:2],1,1,,3<8[8:2],3,
{8}8>5[8:2],1,1<6[32:5],,,3,4-8[8:1],5,
{8}6b<3[8:2],6,3<8[8:2],4,4,,2<5[8:2],2,
{8}5>8[8:2],4,4qq6[16:6],,,7,8-4[8:1],,
{8}7<2[8:2],7,2<5[8:2],1,1,,3-6[8:1],3,
{8}7-4[8:1],8,1-6[8:1],2,3-8[8:1],4,5-1[8:1],6,
{8}2b,2,
8>4[6:1],3<7[6:1],5,,8,8,
1-6[8:1],6^1b[8:1],1^4b[8:1],4V62[24:5],5,6,7,8,
1>6b[16:4],,6<6[16:8],7,8,,6<6b[16:8],7,
8,,6>2[16:3],7-4b[8:1],8pp5[16:5],,,,
7b<2[8:2],7,2<5[8:2],1,1,,4>7[8:2],4,
7<2[8:2],6pp1b[16:6],6,,,4,3q7b[8:1],2,
1>6[8:2],1,6<3[8:2],7,7,,4-8[8:1],5,
6-2b[8:1],7,8-4[8:1],1,2-6b[8:1],3,4,5,
7b,7,1<5[6:1],6>2[6:1],4,,1,1,
8^3[8:1],3^8b[8:1],8^5b[8:1],5^3-7[24:5],4,3,2,1,
8<3[16:4],,3>3b[16:8],2,1,,3>3[16:8],2,
1,,3<7b[16:3],2-5[8:1],1qq4b[16:5],,,,
2b>7[8:2],2,7>4[8:2],8,8,,5<2[8:2],5,
2>7[8:2],3qq6b[16:6],3,,,7,8p4b[8:1],1,
2b<5[8:2],2,5>8[8:2],4,4,,7,7,
46,35,24,{32}1b,2,3,4,5,6,7,8,1,2,3,4,5,6,7,8,1,2,3,4,
{8}5/8b-4[8:1],8,4,3,2h[4:1]/1,,8-4[8:1],8,
4,3,2-5[8:1]/1,3,6,6,2-6[8:1],3,
7,7,2-7[8:1],3,8,8,2-6[8:1],6-4[8:1],
4-1b[8:1]*-8b[8:1],,,,7,7,6,5,
4/1b-5[8:1],1,5,6,7h[4:1]/8,,1-5[8:1],1,
5,6,7-5[8:1]/8,3-1[8:1],7-3[8:1],3,7,2,
2-5[8:1],3,7,7,2-6[8:1],3,8,8,
2-7[8:1],3,4-1b[8:1],5,6-3[8:1],7,8-5b[8:1],1q3[8:15],
1bp7[4:7],E
