&title=勇者
&artist=YOASOBI
&first=0
&des=KuSB
&lv_6=12+
&inote_6=(208){1},
{16}6,,4h[4:1],,,,5h[4:1],,,,3h[8:7],,,,4h[8:5],,
{16},,,,,,,,,,,,,,,,
{16}3,,5h[4:1],,,,4h[4:1],,,,6h[8:7],,,,5h[32:21],,
{16},,,,,,,,,,,,,,,,
{16}6,,4h[4:1],,,,5h[4:1],,,,2h[8:7],,,,4h[8:5],,
{16},,,,,,,,,,,,5,,4,,
{16}6,,3h[4:1],,,,4h[4:1],,,,5h[8:5],,,,7h[8:5],,
{16},,,,,,,,1b,,,,,,,,
{16}3h[4:1],,,,5,4,6,,6h[4:1],,,,3,5,1-4[8:3],,
{16},,,,,,,,5>2[4:1],,,,,,,,
{16}6h[4:1],,,,4,5,3,,3h[4:1],,,,6,4,8p3[8:4]*q5[8:4],,
{16},,,,,,,,,,,,,,,,
{16}7h[4:1],,,,1,8,2,,2h[4:1],,,,3,1,5<3[8:5],,
{16},,,,,,4,,4h[4:1],,,,,,,,
{16}1b/8b,,,,4,,5,,2h[8:1],,,,7h[8:1],,,,
{16}5,4,3,,6h[8:1],,3h[8:1],,4,5,6,,2h[4:1],,,,
{16}5,4,3,2,1,8,7,6,{16}5b/4b,,,,1h[32:1],,1h[32:1],,
{16}72,,,,6-4[4:1],,5,,7,,,,2-4[4:1],,3,,
{16}1,,,,6-4[4:1],,5,,7,,,,2-4[4:1],,3,,
{16}1,,,,6^4[4:1],,5,,7,,,,2^4[4:1],,3,,
{16}1,,,,6^4[4:1],,5,,7,,,,1h[32:1],,1h[32:1],,
{16}25,,,,3-5[4:1],,4,,2,,,,7-5[4:1],,6,,
{16}8,,,,3-5[4:1],,4,,2,,,,7-5[4:1],,6,,
{16}8,,,,3^5[4:1],,4,,2,,,,7^5[4:1],,6,,
{16}8,,,,3,,4,,2b/5h[4:1],,,,,,,,
{16}2-7[2:3]/6-3[2:3],,,,,,,,,,,,,,,,
{16},,,,,,,,,,,,,,,,
{16}3<7[2:3]/7>3[2:3],,,,,,,,,,,,,,,,
{16},,,,,,,,,,,,,,,,
{16}3q1[2:3]/7q5[2:3],,,,,,,,,,,,,,,,
{16},,,,,,,,,,,,,,,,
{16}1w5[2:2],,,,,,,,,,,,,,,,
{16},,,,,,,,5b-1[8:1],,,,,,,,
{16}3h[4:1],,,,{12}4,3,4,{16}5h[4:1],,,,{12}4,5,4,
{16}3h[4:1],,,,1h[4:1],,,,8h[4:1],,,,6h[4:1],,,,
{16}4h[4:1],,,,5,,6h[4:1],,,,5,4,3,,8,,
{16}8<4[2:1]*>4[2:1],,,,,,,,,,,,,,,,
{16}6h[4:1],,,,{12}5,6,4,{16}3h[4:1],,,,{12}4,3,5,
{16}6h[4:1],,,,2h[4:1],,,,4h[4:1],,,,5h[4:1],,,,
{16}7<2[2:1],,,,1,,1,,,,8,,8,,,,
{16}5/1,,5w1[8:3]/1,,,,,,,,,,,,,,
{16}2h[2:1]/8-5[4:2],,,,,,,,,,,,,,,,
{24}3,4,5h[12:5],{16}6-3[4:1],,,,,,,,,,,,,,
{16}3h[2:1]/4-8[2:1],,,,,,,,,,,,,,,,
{24}7,6,5h[12:5],{16}4>6[8:3],,,,,,,,,,,,,,
{16}45,,,,3,,3,,1-3[8:1]/2,,,,8,,,,
{16}45,,,,6,,6,,8-5[8:1]/7,,,,1,,,,
{12}3,2,1,7,6,5,2,1,8,6,5,4,
{12}1,8,7,5,4,3,{16}2h[32:13]/6h[32:13],,,,,,{32},,73,84,
{16}1bV74[2:1]/5bV74[2:1],,,,,,,,,,,,,,,,
{2}4q1[8:1]/6-1[8:1],{8}3h[8:2]/8b,,4,2b-4[8:1]/5b-7[8:1],,25,,8,17,
{16}2,4,3,,7,5,6,,3,4,2,,6,5,{8}7,1-5[8:1],,1b/8b,,
6,7-4[8:1]/5,4V68[16:3],7/2,1-4[8:1],2,3h[4:1],,6,75,,8w4[8:1]/4,,8,,
6b/2b,,{16}1-3[8:1],8,7,6,{4}1b,{16}1-4[8:1],7,6,5,{4}1b,
{16}1-5[8:1],6,5,4,{4}1b,46,3b/7b-5[8:1],
7/4-8[8:1],4/1V35[16:3],{8}17,6h[4:1],,4,{4}37,{16}2,4,3,4,3,4,{8}1w5[8:1],,1,,
7<4[8:1],3,72,1,8-4[8:1]/6-1[8:1],,86,,7,1,2-5[8:1]/8-5[8:1],,28,,
3,2-5[8:1]/4,5V31[16:3],2/7,8-5[8:1],7,6h[4:1],,3,24,,1w5[8:1]/5,,1,,
{4}7-5[8:1]/8-4[8:1],78,2-4[8:1]/1-5[8:1],21,
3-8[8:1]/7-4[8:1],37,1V35[4:1]/5-7[8:1],1/5<4[8:3],8h[2:1],,5<8[16:3],{8}15,
{16}1,2,3,4,5>6[16:6],6,7,8,{8}1/5,,,5b,,
3b/4b,,{16}2,3,6,5,{8}4-2[8:1]*-8[8:1],,,,1-3[8:1],7-5[8:1],,,4-2[8:1],6-8[8:1],,,
1h[4:1],,{16}7,6,3,4,{8}5-7[8:1]*-1[8:1],,,,8-6[8:1],2-4[8:1],,,5-7[8:1],3-1[8:1],,,
8h[4:1],,{16}2,3,6,5,{4}4b,{16}2,3,6,5,{4}4b-1[8:1]*-7[8:1],,8bw4[8:1],,
1h[4:1],{16}7,6,3,4,{4}5b,{16}7,6,3,4,{4}5b-8[8:1]*-2[8:1],,1-5[8:1],{8}
4b-2[8:1],8b-6[8:1],,,,{16}3,4,{8}5,4-2[8:1]*-6[8:1],,4,,4,53,
