&title=光風霽月
&artist=影虎
&first=0
&des=榎本 尚哉
&lv_5=14+
&inote_5=(160)
{1},
{4}4qq1[8:3]/5pp8[8:3],,,
{16}Chf[8:2],,,,8-4b[8:1],,,,,,,,
3h[8:1]/5h[8:1],,,4h[8:1]/6h[8:1],,,28,,4b/5b<4[8:2],,,,,,,,
8h[8:1],,,2h[8:1]/5h[8:1],,,74,,5b/1bq5[8:1]*p5[8:1],,,,,,,,
7h[8:1]/5h[8:1],,,2h[8:1]/4h[8:1],,,18,,6h[8:1],,3,4,2h[8:1],,
6,5,8<4[8:1]*p4[8:1],,,,,,,,
3,4,3,4,2h[8:1],,6,5,6,5,7h[8:1],,8,7,1,6,
3,4,3,4,1h[8:1],,6,5,6,5,8h[8:1],,
4,7,5,6,4hbx[8:2]/7h[8:2],,,,,,
3,4,2hbx[8:2]/5h[8:2],,,,,,7,8,1hbx[8:6]/6<5[8:4],,,,,,,,,,,,,,,,
C,,,,
{24}1,8,1,8,1,8,2,7,2,7,2,7,3,6,3,6,3,6,
B1,B2,B3,B7,B6,B5,E2,E3,E4,E8,E7,E6,
B1,B2,B3,B7,B6,B5,
A1,A2,A3,A7,A6,A5,
{16}2x,,1x,3hx[8:1],,8,2h[8:1],,7,1h[8:1],,6,8h[8:1],,5h[8:1],,
8,5,8,5,1,6,1,6,
{24}2,3,4,8,7,6,
{16}1b/5,1h[16:1],,,
2,4,3,5,4,4,7,5,6,4,5,5,
2,4,3,5,4,4,7,5,6,4,5,5,
2,2,4,4,3,3,5,5,
{24}1,2,3,
7,6,5,
2,3,4,
8,7,6,
{32}1,2,3,4,5,6,7,8,
1,2,3,4,5,6,7,8,
{16}1s5[8:3]*v3[8:3],,,,,,,,,,,,Cf,,,,
15,,,,2,4,2,4,1hx[8:1],,6,3hx[8:1],,4,3,5,
4,6,5hx[8:1],,7,5,6,4hx[8:1],,6,2h[8:1],,8,7,6,5,4h[8:2]/8bqq3[16:5],,,,8,,,,
4,4h[8:1],,3hx[8:1],,1,2,8,1bx,7bx,8xb,,6x,5x,,2x,8,,8,2,
3x-8[8:1]/7x-4[8:1],46,5,,37,,,,
2,4,2,4hx[8:1],,2hx[8:1],,8hx[8:1],,
3,1,2,8,1,7,8hx[8:1],,7,5,6,4,5,3,7,
1h,8h,2h,7h,5x-1b[8:1],,,,
8bz4[8:2],,,,8>3b[8:1],,,,8bqq5[8:3]*pp3[8:3],,,,,,,,,,,,
4w8[8:1],,,,4b,,,,1x/7x,,2,4,3,5,4,,17,,6<1[8:1],5,,4,6,,2h[8:1],,
4,3,5,4,6,,17,,3>8[8:1],4,,5,3,,7,6,5,4,8,7,6,5,
{24}E7,E6,E5,E2,E3,E4,A7,A6,A5,A1,A2,A3,
7x,6x,5x,1,2,3,8,7,6,2,3,4,
8,7,6,45,3,2,8,7,6,45,3,2,
{16}1h[8:1],,7x,7x,4,4,6,6,3,5,4,5,2-5[8:1],4,3,4,2,,7,7h[8:1],,2,6,4,
8-4[8:1],,3-1[8:1],,8,,3,,7,7,5,6,2,2,4,3,8,8,4,6,1,1,5,3,
{24}7,8,1,2,3,4,5h[8:4]/6,7,8,1,2,3,4h[8:4],,,,,,,,,,,,Cf,,,,,,
{24}8h[8:1]/3,4,5,
{16},
{24}8h[8:1]/3,4,5,
{16},
{24}7h[8:1]/2,3,4,
{16},
{24}7h[8:1]/2,3,4,
{16},7b/2b,,,,,
{24}2h[8:1]/6,5,4,
{16},
{24}1h[8:1]/6,5,4,
{16},
{24}2h[8:1]/7,6,5,
{16},
{24}1x/7,6,5,
{1}4bV63-7-2-8[8:5]/3hx[8:8],
{8}C,,B3,,E5,,Ch[8:2],,4qq4[8:4],,,,6,,5pp5[8:4],,
{16}4,,,,,,,,2,,,,2q4[8:5],,,,C,,,,,,E7,,E8,,,,,,,,7p5[8:4],,,,,,E3,,E2,,,,
,,,,C,,
{24}E3,B3,B4,
{16}E5,,
{24}E7,B6,B5,
{16}E5,,,,2qq5[8:5],,,,5,,,,6,,,,6h[8:2],,,,,,,,7pp4[8:6],,,,
{4}E5,E4,E3,
{48}E2f,D2,,
{16},,,,,,,,,,,,,,,
{8}3h[8:1]/4,,3h[8:1]/5,,3h[8:1]/6,,3h[8:1]/7,,
8h[8:1]/1,,8h[8:1]/2,,8h[8:1]/3,,8h[8:1]/4,,
4h[8:1]/E6,,4h[8:1]/E7,,4h[8:1]/E8,,4h[8:1]/E1,,
4h[8:1]/E2,,4h[8:1]/E3,,4xs8b[8:1]*-8[8:1]/E4,,4x,,
{16}2,1,2,3h[8:1]/8h[8:1],,,1h[16:1]/6h[16:1],,8<5b[8:1],7,1,1,,,,,
3,4,3,2h[8:1]/5h[8:1],,,4h[16:1]/7h[16:1],,5<8b[8:1],6,4,4,,,,,
{32}
2b,3,4,5,7,,,,1b,2,3,4,6,,,,2b,3,4,5,7b,6,5,4,1bs5[8:4],2,3,4,8b,7,6,5,,,,
,,,,,,,,,,,,,
{16}1-5b[8:1],,
,,1b,,,,
34,,3,4,1,8,5,6,2>4b[8:1],8,5-1[32:3],6,2,,5,,
3,3,1x,2,5,4,7,8,5-7b[32:3],3,8>3[8:1],1,5,,8,,
5,,24,42,3,4,1,7,5>2b[8:1],6,2<8[32:3],8,5,,7,,
6,6,8x,8,2,2,4,4,7<4b[8:1],2,8v3[8:1],1,7,,8,,
4x,,3x,5,1,8,4,6,2<7b[8:1],1,4-8[8:1],5,2,,4,,
2,2,1x,3,6,5,7,1,5<7b[32:3],4,8v3[8:1],2,5,,8,,
5,,24,24,3,4,1,8,4>1b[8:1],6,1<6[8:1],8,4,,6,,
5,5,4,6,3,3,4,2,8bx<5b[8:1],1bx,,1bx,8bxw4[8:1],,,,
{48}8bx,Cf,,
{16},,,,
2hx[8:1]/A6/E6/D6f/A5,,,
7hx[8:1]/A3/E4/D4f/A4,,,
1hx[8:1]/B6/E7/D7f/A6,,,
8hx[8:1]/B3/E3/D3f/A3,,,
3hx[8:1]/A7/E8/D8f/A8,,,
6hx[8:1]/A2/E2/D2f/A1,,
D7f,,,
4hx[8:1]/B8/E8/D8f/A8,,,
D4f,,,,
7x,,1-6[8:1]/8,18,,21
,21,,
3,,5x-2[8:1]/4,54,,65,65,,
7,7,1<6[8:1],8,,3,1,,2,2,4,3,7,7,5,6,
2,4,3,4,1,4,3,4,
{32}
1bx,8,7,6,5,4,
8bx,1,2,3,4,5,
1bx,2,3,4,
{16}7,7,5,6,2,2,4,3,
{32}
8bx,1,2,3,4,5,
1bx,8,7,6,5,4,
8bx,7,6,5,
{16}2,2,8,8,6,6,4,4,3,3,1,1,7,7,5,5,
{32}1,2,3,4,5,6,7,8,17,6,5,4,3,2,1,8,
{48}1bx/7bx,26,35,
{16}4,,
{48}8bx/2bx,73,64,
{16}5,,
{96}8bx<1[8:9]/1bx>8[8:9],,
{48}27,36,
{16}45,,,,,,,,,,,,,,,,,,,,,,,,,
1w5[8:1],,,,,,,,
8hb[8:3]/D4/A4/A3/E4f,,,,,,,,
3h[8:1]/5h[8:1],,,4h[8:1]/6h[8:1],,,25,,4b/7b>4[8:2],,,,,,,,
8h[8:1],,,2h[8:1]/5h[8:1],,,74,,5b/1bv4[8:1]*v6[8:1],,,,,,,,
7h[8:1]/5h[8:1],,,2h[8:1]/4h[8:1],,,18,,6h[8:1],,3,4,2h[8:1],,
6,5,8p4[8:1]*<4[8:1],,,,,,,,
3x,4,2,4,1h[8:1],,6,5,7,5,8h[8:1],,2,1,3,8,
5,6,4,6,3h[8:1],,4,3,5,3,6h[8:1],,
2>5[8:1],1,3,8,2h[8:2],,,,7x<4[8:1],,
8,8,7h[8:2],,,,3x>5[8:6],,4,4,3h[8:6],,,,,,,,,,,,,,,,26,,,,
{24}
1b,5,1,5,1,5,8,4,8,4,8,4,7,3,7,3,7,3,8,1,2,34,5,6,1,2,3,45,6,7,
{32}18,2,3,4,5,6,7,8,1/5-1[8:1],4,3,2,1,8,7,6,
{48}5b,Cf,,,,,,,,,,,,,,,,,,,,,,,,,,,,,,,,,,,,,,,,,,,,,,,E
