&title=Maihime
&artist=Lyrical Lily
&first=0
&des=niver
&lv_5=12+
&inote_5=(130.5)
{4},,,
{8},4h[8:5],,,,,
{8}1<6[8:3],,,,,2q3[8:5],,,,,
{4},5h[4:2],,Ch[8:5],,
{8},7,6,5pp6[8:3],,,
{8},1h[8:5],,,,,
{8}3>8[8:3],,,,,4q5[8:5],,,,,
{4}E1,E1,E1,E1/E5,E8/E4,E3/E7,E6/E2,E5/Cf/E1,
{8},7x,5x/6x,4,3/5,2,8h[4:1]/1,,6,7,{16}5,6,,,
{8}4/7b-5[8:1],,
{8}4,3,2/5x-7[8:1],3,
{16}4h[16:3],,,6h[16:3],,,5,,
{8}6,6/5,4,4/5,
{16}6,5,,5,6,,
{8}4/7,6,5,3/4,
{8}2,3/4,5,4/6,7,1h[4:1]/8,,3,2,{16}4,3,,,
{8}5/2b-4[8:1],,
{8}5,6,7/4x-2[8:1],6,
{16}5h[16:3],,,3h[16:3],,,4,,
{8}3,3/4,5,5/4,
{16}3,4,,4,3,,
{8}5/2,3,4,6/5,
{8}7,6p4[32:12],,,,,,
{16}1x/2x,,1/2,,3,4,3,4,,2,1,3,8,,5x,6,4,7,3,,Ch[16:3],,,4p7[16:3],,,B6/E7,,,,,,
{16}8x/7x,,8/7,,6,5,6,5,,7,8,6,1,,4x,3,5,2,6,,Ch[16:3],,,5q2[16:3],,,B3/E3,,,,,,
{16}1x/8x,,1/8,,2,7,2,7,,3,4,2,5,,8x,7,1,6,2,,Ch[16:3],,,1q5[64:11],,,7x,,
{16}7x-3[8:1],,,,5h[4:1],,,,6x,4,5,3,,2,1,3,8,4,7,5,,,
{8}5/6,7,7,8,8,
{8}1<6[8:3],,,,,2q4[8:5],,,,,,,
{4}Ch[4:2],,3h[8:5],,
{8},4,5,6pp5[8:4],,,,4h[8:5],,,,,
{8}3>8[8:3],,,,,4q5[8:5],,,,,
{4}E1,E1,E1,E2/E8,E3/E7,E4/E6,
{8}E5,C,
{16}7x,5x,,1/8,,2,
{8}4,5/6,7,1/8,2,3/4b-7[8:1],,
{16}8,,1,,2-5[8:1],,,4,2<7[8:1],,6,,2/5-8[8:1],,,3x,5>2[8:1],,6,,5/7-3[8:1],,,,4,,2,,
{16}2b>5[8:1],,,,1,,8,,7-4[8:1],,,5,7>2[8:1],,3,,7/4-1[8:1],,,6x,4<7[8:1],,3,,2-6[8:1],,,,5,,7,,
{16}7b<4[8:1],,,,8,,1,,2-5[8:1],,,4,2p6[8:1],,6,,2/5-8[8:1],,,3x,5p1[8:1],,6,,5/7-3[8:1],,,,C,,,,
{16}2-6[8:1],,,,4h[4:1],,,,3x,5,4,6,,7,8,6,1,5,2,4,,,
{8}3,1/2,8,6/7,5,3/4b-7[8:1],,
{16}8,,1,,2-5[8:1],2,,4,2<7[8:1],,6,,2/5-8[8:1],5,,3x,5>2[8:1],,6,,5/7-3[8:1],,,,4,,2,,
{16}2b>5[8:1]/C,,,,1,,8,,7-4[8:1],7,,5,7>2[8:1],,3,,7/4-1[8:1],4,,6x,4<7[8:1],,3,,
{16}2V84[4:1],2,,,6,,6h[8:3],,,,,,5>2[8:1],6,,6,5,,7,,1-3[8:1]/8,,2/7,,
{16}5,,6,,7/4-2[8:1],,6,,5h[16:3],,,3h[16:3],,,
{8}4,2,1/3,7,6/8,4/5,3/6,2/7,1b-5[8:1]/8b-4[8:1],,,,
{8}4/3,5/4,6/5,5v8[8:1]/6,,E7,,
{16}6>3[8:1],1,,1,6,,1,,2/8x-6[8:1],,1/3,,
{16}4,,3,,2/5-7[8:1],,3,,4h[16:3],,,6h[16:3],,,
{8}5b,7b,1b/8b,2b/4b,6b/5b,1b/2b,4b/5b,1b/7b,3b/4bq5[8:3],,,,
{8}3,3h[4:1],,E5/B4/B5,,
{16}2/6,,1,8,,,5h[4:1]/7,,,,6,5,6,5,4x/7x,,1/8,,8,1,,,2p4[4:1]/4,,,,,,,,,,
{16}7/3,,8,1,,,4h[4:1]/2,,,,3,4,3,4,5x/2x,,8/1,,1,8,,,7/5,,7/5q1[8:1],,,,E3/B2/B3/5,,,,
{16}3/7,,2,1,,,8h[4:1]/6,,,,7,8,7,8,1x/6x,,4/5,,4,5,,,1qq6[4:3]/3,,
{8},C,,,E3,,E4,,E5,,E6,,6,,5,,4,,3s7[8:1],,
