&title=Destroy, Destroy (feat. eili)
&artist=tailspun
&first=0
&des=
&whole_bpm=177
&clock_count=7
&demo_seek=149.49
&demo_len=21.694
&des_5=gtDD
&lv_5=14
&inote_5=(177){4},,,,,,,
E7,E3,B7,B2,B8,B1,E1,
D4,D6,D3,D7,D2,D8,D1,{16}
7-4[8:1],,,,3h[8:11],,,,E1,,,E2,,,B3,,,B4,,,B5,,,E7,,,E8,,
2-5[8:1],,,,6h[8:11],,,,E1,,,E2,,,B3,,,B4,,,B5,,,E7,,,E8,,
5q1[8:1],,,,2h[8:11],,,,E1,,,E8,,,B6,,,B5,,,B4,,,E3,,,E2,,
8v3[8:1],,,,7h[8:11],,,,E1,,,E8,,,B6,,,B5,,,B4,,,E3,,,1,,
1h[8:13]/A6,A5,A4,A3,A2,,,,B8,,,B2,,,B7,,,B3,,,B6,,,B4,,,5,,
5h[8:11]/E2,E3,E4,E5,E6,,,,D8,,,D1,,,D7,,,D2,,,D6,,,D3,5,,6,,
7-3[8:1]/A1,A2,A3,A4,5xh[8:11]/7,,,,E4,,,E5,,,E3,,,E6,,,E2,,,E7,,,6,,
7x/5,,,3,E5,,1x,,,6,B4,,8x>8[8:5],,,,,,,,Chf[2:1],,,,,,,,
1xb-5[8:1]*-6[8:1],,,,1,,,,2/5x,,3,4,3,,2x/5,,4,3,4,,2/5x,,3,4,3,,23,,
1-6[8:1]/2-5[8:1],,,,21,,,,7/4x,,6,5,6,,7x/4,,5,6,5,,7/4x,,25,,12,,78,,
5-2[8:1]/6-1[8:1],,,,65,,,,3/8x,,2,1,2,,3x/8,,1,2,1,,3/8x,,2,1,2,,38,,
4-7[8:1]/5-1[8:1],,,,45,,,,6/1x,,8,7,8,,6x/1,,7,8,7,,6/1x,,8,7,8>5-8b[8:3],,1,,
2-6[8:1],,,,2,,,,7x/5,,4,5,3,,2/1x,,8,1,7,,2/6xh[8:3],,,,3pp1b[8:3],,3,,
6-2[8:1],,,,6,,,,7x/8,,2,1,3,,6x/4,,7,5,8,,1/2x,,34,,56,,78,,
1-4[8:1]/6-3[8:1],,,,16,,,,2x/5,,6,5,7,,3/8x,,1,2,8,,4x/7,,5,6,5,,34,,
1xh[8:1]/2xh[8:1],,,5xh[8:1]/6xh[8:1],,,7xh[8:1]/8xh[8:1],,,3xh[8:1]/4xh[8:1],,,8xh[8:3]/1>5[4:1],,,,,,,,1,2,3,4,1-5b[8:1]/5,26,37,48,{16}
1b/5xb-7-1-3-5<4^6V82V46[4:22],Cf,,,{4},,,
,,,,
,,,,
,,,,
Ch[1:2],,,,
,,,,
E6,E4,B6,B3,
B7,B2,E8,E2,{16}
1p4[8:1]/8q5[8:1],,,,18,,,,7-4[16:1],,,3-8[16:1],,,6-1[16:1],,
,2-5[16:1],,,7-3[16:1],,,1-5[16:1],,,6,,6,,,,
8-4[8:1]/1-5[8:1],,,,18,,,,6-1[16:1],,,2-5[16:1],,,7-4[16:1],,
,3-8[16:1],,,6-2[16:1],,,1-6-4[16:3],,,8,,8,,,,
3-8[8:1]/7-4[8:1],,,,37,,,,1-6[16:1],,,3-8[16:1],,,5-2[16:1],,
,7-4[16:1],,,1-6[16:1],,,3^8[8:1],,,5,,5,,,,{4}
5x-8[8:1]*-3v2-8[8:1],,7x>3[8:1]/1x-5[8:1],,
8x-5[8:1]*^1v4^5[8:1],,3V58[4:1]*V58[4:1]/6,36,{16}
1-6[8:1]*-5[8:1],,,,1,,,,4/E8,,4,E1,4,,3/B7,,
3,B8,3,,2/E7,,2,E8,2,,1/B5,,1^6[8:1],,,,
1-5[8:1]/2-4[8:1],,,,12,,,,6/E3,,6,E2,6,,7/B3,,
7,B2,7,,8/E4,,8,E3,8,,1,2,4,3,4,3,
5^2[8:1]*^8[8:1],,,,5,,,,1/E8,,1,B5,1,,7/B2,,
7,E5,7,,3/E8,,3,B5,3h[16:1],,6,5,6,5,6,5,
7^4[8:1]/4^1[8:1],,,,,,,,8w4[8:1],,,,,,,,
6,7,8,1,4,3,2,1,5,6,7,8,5,4,3,2,{4}
1h[8:1]/5h[8:1],1h[8:1]/5h[8:1],2h[8:1]/6h[8:1],7h[8:1]/3h[8:1],{16}
64,,64,,53,,42,,1,3,1,3,{24}E1,B8,B7,E7,,,{16}
8v3[8:1],8h[16:3],,,2^5[8:1],2h[16:3],,,6,,6,8,,8,1,,
2-6[8:1],2h[16:3],,,4-8[8:1],4h[16:3],,,1,,1,7,,7,5,6,
4q8[8:1],4h[16:3],,,6v3[8:1],6h[16:3],,,2,,2,4,,4,5,,
8p4[8:1],8h[16:3],,,2-6[8:1],2h[16:3],,,7,,7,5,,5,6,4,
8,,,,8,,,,17,,,,26,,,,
35,,35,,46,,57,,4,8,3,7,2,6,1,5,{4}
4xpp6pp8b[8:5]/8xpp2pp4[8:5],,,,
Chf[4:1],,{12}1b,1b,1b,{48}A7f,E8f,B8f,B1f,E2f,A2f,A6f,E6f,B5f,B4f,E4f,A3f,{4}
8x>8b[8:8],,,,
Ch[8:3],,{32}B2,,,B8,,,B1,,{22}E7,E4,B6,B4,B5,{44},{4}
{18},5x^6v1^7[18:62]*^4v1^3b[18:62],,,{36},{4},,,
,,,,
,,,,
,,,,
6h[4:11],,,,,,,
5h[4:11],,,,,,,
4h[4:9],,,,,,,
3h[4:6],,,{8}E3,E2,E1,E8,{4}E7,6h[4:12],
2qq5[4:5],,,,,,,
4pp8[4:4],,,,,,2h[4:12],
6qq8[4:5],,,,,,,
1>8[4:5],,,,,,,
E1/2h[4:1],,E2/2h[4:1],,B3/3h[4:1],,B4/3h[4:1],
,B5/4h[4:1],,E7/4h[4:1],,E8/5h[4:1],,
E1/7h[4:1],,E2/7h[4:1],,B3/6h[4:1],,B4/6h[4:1],
,B5/5h[4:1],,E7/5h[4:1],,E8/4h[4:1],,
D1/2h[4:1],D2,A3/2h[4:1],A4,A5/3h[4:1],D7,D8/4h[4:1],
D1,D2/5h[4:1],A3,A4/6h[4:1],A5,D7/6h[4:1],D8,
D1/7,D2/8,A3/1,A4/2,A5/3,D7/4,D8/5,
D1/6,D2/7,A3/8,A4/1^4-8[8:5],Chf[4:3],,,
7xb^6^5^4^3^2^1^8^7^6-4-2-8-6-4b[32:95]*^6^5^4^3^2^1^8^7^6[4:6],,,,,,,
,,,,,,,
3<8>4[8:11],,,,,,,{8}
5,6,74,3,26,7,84,3,25,6,73,2,16,6,{16}
1,7,1,7,2,8,2,8,3,1,4,1,5,2,6,2,
D7,,,,E7,,,,E3,,,,D3,,,,
3,4,3,4,2,5,2,5,1,6,1,6,8,7,8,7,
1b,2,3,4,8,7,6,5,8,1,2,3,7,6,5,4,
2,1,2,1,3,8,3,8,4,7,4,7,5,6,5,6,
4b,3,2,1,4,5,6,7,1,2,3,4,7,6,5,4,
8,7,8,7,1,6,1,6,2,5,2,5,3,4,3,4,
2b,1,8,7,4,5,6,7,2,3,4,5,2,1,8,7,
5,6,5,6,4,5,3,4,2,5,1,6h[16:5],8h[8:1],,,,{12}
1,2,3,7h[24:1],6h[24:1],5,{16}2b,1,3,8,4,7,5,6,
3,4,3,4,2,5,2,5,1,6,1,6,8,7,8,7,
1b,2,3,4,8,1,2,3,8,7,6,5,1,8,7,6,
2,1,2,1,3,8,3,8,4,7,4,7,5,6,5,6,
4b,3,2,1,3,2,1,8,3,4,5,6,2,3,4,5,
8,7,8,7,1,6,1,6,{24}1,2,3,4h[4:1],,,5,6,7,8h[8:1],,,{16}
2,8,2,8,2,,37,,1,8,2,7,4V68V24<4[4:6],5,3,6,{4}
,,,,
,,{16}5,6,7,8,4,3,2,1,
8,7,8,7,1,6,2,5,1,8,1,8,2,7,3,6,
2b,1,2,1,3,8,4,7,3,6,1,7,3,5,2,8,
5,6,5,6,4,7,3,8,4,5,4,5,3,6,2,7,
3b,4,3,4,2,5,1,6,8,7,5,6,2,1,3,4,
2,1,2,1,3,8,4,7,3,4,3,4,2,5,1,6,
5b,7,4,8,3,1,2,4,1,5,8,6,1,7,4,6,
2,1,2,1,3,8,4,7,8,7,8,7,1,6,2,5,
3,4,8,7,4,5,2,1,3b,7,1,5,4,6,2,8,
5,6,4,6,2,7,8,6,2,1,4,8,5,6,1,7,
3b,4,2,4,8,6,5,7,1,8,2,1,3,5,1,6,
4,7,2,4,3,5,1,8,4,6,1,7,3,8,5,7,
2b,1,3,1,5,8,2,5,1,6,4,8,1,7,3,5,
2,1,5,7,2h[8:1],4h[8:1],,,7h[8:1],5h[16:1],,2h[8:1],4h[16:1],,,,
1b,8,1,8,,,27,,4,5,4,5,Ch[8:1],,7,,
1,8,2,7,4-8b[8:1],5,3,6,{32}4bqq2qq8qq6qq4<4b[4:17],Cf,{16},,,{4},,,,
,,,,,,,
,,,{12},Ch[24:22],,{4},,,
D4,D6,D3,D7,D2,D8,D1,
E7,E3,B7,B2,B8,B1,E1,
