&title=bloom
&artist=daiki(Vo. 三木谷奈々 )
&first=0
&des=桜羽 エマ
&clock_count=4
&lv_5=13
&inote_5=(88){1},
{8},,,,,E2,,
{16}E8,E7,E6,,C,,,,E2,,E4,,C,,,,
E3,E4,E5,E6,E7/C,,,,E5,,,,C,,,,D2,,,,A6,,,,,,,,C,,,,,,
E5,,E6,,E7,,E8/4b-8[10:1],,5,,4/7b,,,,
7,,6qq2[2:1],,5,,4,,3,,2<3[16:6],,1,,,,,,
2<7[8:1],,,,3,,4,,5,,6/1qq5[8:3],,,1/7,,,
5V38[8:2],,,,8-4[8:1],,7,,6,,5,,,3/5,,,
3/5h[4:1],,4,,6>3[8:1],,7,,6,,
8V64[8:2],,,2/8-4[8:1],,,1,,,,7,,E3,,E4,,
6V82[8:2],,,4/6-2[8:1],,,4,,,,8,,E8,,E7,,
5/3h[8:3],,,,C,,4,,,,2,,
6qq3[8:6],,3/7,,2qq7[8:4]*qq7[8:4]/6,,,,,,,,,,,,,,,,
1h[8:3]/5-7[8:1],,,7,,,,,1>4[8:1],,,,,,,,
4h[8:3]/8-6[8:1],,,6,,,,,4>1[8:1],,,,,,,,
1h[8:3]/6-4[8:1],,,7,,,,,1>4[8:1],,,,,,,,
4h[8:3]/7-5[8:1],,,8,,,,,4>1[8:1],,,,,,,,
5h[8:3]/1<6[8:1],,,2,,,,,5<8[8:1],,,,,,,,
4h[8:3]/8>3[8:1],,,7,,,,,4>1[8:1],,,,,,,,
1h[8:3]/5pp8<5[8:5],,,6,,,,,1>4[8:1],,,,,,,,
8h[8:3]/4qq1>4[8:5],,,3,,,,,8<5[8:1],,,,,,,,
1>4[8:1]/5h[4:1],,,,1,,,,,,6/5<8[6:1],,4,5,,,
3h[4:1],,,,1-4[8:1],,3<7[4:1],,,,
2,,,3,,,4h[4:1],,,,8<5[8:1],,,,8,,
3>8[8:1],,4,3,,,5h[4:1],,8V24[6:1],,1,,
6V82[6:1],,7,,,,,,5,4,3h[4:1],,,2,2-6[8:1],,
3,,4>1[8:1],,5<8[8:1],,4,,5,,
3h[16:3],,,1,,,2V46[6:1]/8,,1V75[6:1]/7,,2/8,,1,,
4,,3h[16:8],,4h[16:1],,,5h[16:1],,,
6>3[8:1],,,,,2,2,,2qq5[8:2],,,,,,,,6bqq8[8:2],,,,
1pp4[32:7],,2,,1<5[8:1],,,,1w5[10:1]*w5b[10:1],,2,,1,,,,
8,,1/7>2[10:1],,5p1[10:1]/6,,
5>6[8:2]/7,,5,,,2x,2x,,5,,
4,4,6,5,4/7-3[10:1],,1qq6[8:3],,3,,2-5b[10:1],,
3,,2,,,7,,6-1[10:1]/8-3[10:1],,,1/3,,,,
4/8,5q4b[8:1],,4>5[32:7],3/7,,,,,,2,,
3,,6-1^6^5^4[128:43],5,7,4,6>3b[256:32]*>3[256:32],,
3,2,1,,1h[4:1],,,,3,,2-5>2^1^8[128:43],4,3,5,2<7b[256:32],7,
6,,6qq8[8:2],,5,,4>5[8:2],,,,4,,5,,8-4[10:1],,,,,,
3,3,4-8[10:1],,2,,4>7[8:1]/5,,7,6,4/5,,
5,,6,,3/7,,4b/8b-4[10:1],,5<8[10:1],,4/8-5[10:1],,2,2,,
1,1pp5[8:2],,6,6,1/5<4[8:3],,7,,6,,5,,
6,6,,7,7>3[6:1],,3,,4,,5pp1[8:3],,,,7,,1V37[8:2],,,,
7-2[8:1],,7,,6,,5,,,,3/5,,3/5h[4:1],,4,,6-2[10:1],,7,7,6,,
8-4[10:1],,,2V46[6:1],2,,,2,,,
7V53[6:1],,7-3[10:1],,8,,7,,8,,7,,6/4,6/4h[16:3],5,,
3<6[10:1],,2,,3,,1,,8,,2/7,,3/6,,4/5,,5/6,,3/4,2qq5[16:5]/7pp4[16:5],,,
2/7,,,,,,,,3/6,,2/1,,5/6,,7/8qq5<1[8:6],,3/4qq1>5b[8:5],,
,,,,,,,,,,,,,,,,,,,,
E
