&title=Sendan Life(Katagiri Bootleg)
&artist=かたぎり; 花守ゆみり
&first=-0.16
&des=叠
&lv_5=14
&inote_5=(260)
{1},,,,{8},,,,,{24}6,7,8,1-5[8:1],2,3,{8},
7-4[8:1]/1,,8-3[8:1]/7,,58,6-1[8:1],,2-6[8:1]/6,,1^4[8:1]/2^7[8:1],,12,,56,3/8-4[8:1],,
2-5[8:1]/8,,1-6[8:1]/2,,41,3-8[8:1],,7-3[8:1]/3,,72,,{16}1,5,34,,26,,{24}7,8,1,2,3,4,
{8}
1b,1,14,2,38,8,68,7,51,1,17,2,34,4,14,52,36,78,12,1,13,8,57,5,56,3,24,4,48,6,15,37,
8b,8,85,7,61,1,31,2,48,8,82,7,65,5,85,47,63,21,87,8,86,1,42,4,51,{16}2,3,4,,34,,2,5,1,6,8,7,,,
{8}2bqq5[2:1],6h[8:1],,6h[8:1],,6h[8:1],,6h[8:1],4-1[4:1],7h[8:1],,7h[8:1],,7h[8:1],2,7h[8:1],
4h[8:1],1h[8:1],3h[8:1],8h[8:1],2h[8:1],7h[8:1],1h[8:1],6h[8:1],8>4[4:1],5h[8:1],,5h[8:1],,,7,7,
5qq2[2:1],8h[8:1],,8h[8:1],,8h[8:1],,8h[8:1],1-5[4:1],6h[8:1],,6h[8:1],,6h[8:1],3,6h[8:1],,5h[8:1],1,5h[8:1],,7h[8:1],4,7h[8:1],2,2,56,65,14,14,{24}1,8,7,6,5,4,
{8}8-2[8:1]*^3[8:1],,7/8-4[8:1],,8
,2,1>4[8:1],,1-7[8:1]*^6[8:1],,2/1-5[8:1],,1,7,8,,
1/2-6[8:1],5/6-2[8:1],2/8qq5[2:1],,8,,2,,4-8[8:1],,3/4pp2[2:1],,47,,8,8,6,6,1-7[4:1],,7-2[4:1],,2-6[4:1],,6-3[4:1],,3-5[4:1],,5,,8,8,
4-2[8:1],2-6[8:1],7^2[2:1]/4,,7,,5,,3,,12,,{24}21,8,7,6,5,4,{16}3qq6[8:7],2,1,8,
{8}7h[8:3]/3b,,,,,,7>5[8:5],,,,,,1,,2qq5[4:3],,
2/6h[8:3],,,,,,7>5[8:5],,,,,,8,,1qq3[4:3],,1/5h[8:3],,,,,,5p4[8:5],,,,,,2,,2,,
{24}5/2h[2:1],6,7,8,1,,{20}3,4,5,6,7,{16}8,1,2,3,{12}4,5,6,
{8}7-3[8:1],,37,1,5w1[8:1],,5b,,
1-4[8:1]/2-4[8:1],,1-5[8:1],,1-6[8:1]/8-6[8:1],,1-5[8:1],,1^3[8:1]*-4[8:1],,1^7[8:1]*-6[8:1],,1,,53,53,
2-8[8:1]/6-4[8:1],,6-1[8:1]/2-5[8:1],,2-7[8:1]/6-3[8:1],,26,,4/8w4[8:1],,8,,6,6,3,3,
8,57,8,74,8,73,8,27,1,26,1,52,1,24,1,1,28,28,37,73,{16}4,6,4,6,5-2[8:1],5,5-8[8:1],5,5w1[8:1],,,,,,,,3-8[8:1]/7-4[8:1],,,,3b/7b,,,,
{8}1-5[8:1],,1-3[8:1]/8-3[8:1],,1^6[8:1]/8,,14,2-6[8:1],,25,,7/8,7-5[8:1]/8-4[8:1],,78,,2-5[8:1],1,2^7[8:1],,2V41[4:1]/4,,26,8qq4[2:1],,8,,1,1,,3,,
2-5[8:1],,1-6[8:1],,8-3[8:1],,7-4[8:1],,1qq2[2:1],,4,4,,6,6,,37,73,
{24}8b,1,2,3,4,5,6,7,8,1,2,3,4,3,2,1,8,7,6,5,4,3,2,1,{8}87,,{16}12,,12,,8,3,8,3,
{8}8-4[8:1],,8-6[8:1]/1-6[8:1],,8^3[8:1]/1,,85,7-3[8:1],,74,,2/1,2-4[8:1]/1-5[8:1],,21,,7-4[8:1],8,7^2[8:1],,7V58[4:1]/5,,73,1pp5[2:1],,1,,8,8,,6,,
7-4[8:1],,8-3[8:1],,1-6[8:1],,2-5[8:1],,7-3[8:1],,8-4[8:1],,1-5[8:1],,2,2,6,6,3,3,7,7,1,1,
{16}8,2,8,2,8,2,8,2,{32}8,7,6,5,4,3,2,1,8,7,6,5,4,3,2,1,
{8}
8b,8,85,7,61,1,31,2,48,8,82,7,65,5,85,47,63,21,87,8,86,1,42,4,43,6,75,5,51,3,84,62,
1b,1,14,2,38,8,68,7,51,1,17,2,34,4,14,52,36,78,12,1,13,8,57,5,48,{16}7,6,5,,65,,7,4,8,3,1,2,,,
{4}7pp2[2:3],,,,{8}1`2`3`4,,,8`7`6`5`,,,1,1,
{4}3pp6[2:3],,,,{8}3`4`5`6,,,2`1`8`7`,,,3,3,
2h[4:1],,5,4h[4:1],6h[4:1],,3h[4:1],,8h[4:1],,1h[4:1],7h[4:1],,2h[4:1],6h[4:1],,5,5h[4:1],1h[4:1],,4h[4:1],,8,2q8[2:1]/6q4[2:1],,,,,,,1b/5b,,
6-8[8:1],3h[8:1],,3h[8:1],1-7[8:1],3h[8:1],,3h[8:1],5-7[8:1],2h[8:1],,2h[8:1],8-6[8:1],2h[8:1],,2h[8:1],4-6[8:1],1h[8:1],,1h[8:1],7-5[8:1],1h[8:1],,1h[8:1],
3-5[8:1],1h[8:1],,1h[8:1],6-4[8:1],1h[8:1],,1,
1-3[8:1],6h[8:1],,6h[8:1],4-2[8:1],6h[8:1],,6h[8:1],2-4[8:1],7h[8:1],,7h[8:1],5-3[8:1],7h[8:1],,7h[8:1],
2,2,6,6,1-5[8:1],8-6[8:1],1-3[8:1],8-4[8:1],1,8,2,7,36,27,1b/8b,,
2pp5[1:1],,7^1[8:1],,,,8^6[8:1],,,,7,7,46,,3,3,5pp4[1:1],,3^1[8:1],,,,8^2[8:1],,,,3,3,5,,26,,
1qq2[1:1],,7^5[8:1],,,,4^6[8:1],,,,7,,3,3,15,,8-6[8:1],,2-4[8:1],,5-1[8:1],,7,,28,,28,73,6^1[8:1]/4^1[8:1],,6b/4b,,
8-5[8:1]/7^5[8:1],,8-4[8:1],,8-3[8:1]/1^3[8:1],,8-4[8:1],,8-6[8:1]*-5[8:1],,8-2[8:1]*-3[8:1],,8,,46,46,
7-1[8:1]/3-5[8:1],,3-8[8:1]/7-4[8:1],,7-2[8:1]/3-6[8:1],,73,,5/1w5[8:1],,1,,3,3,6,6,
1,42,1,25,1,26,1,72,8,73,8,47,8,75,8,8,71,71,62,26,{16}5,3,5,3,4-7[8:1],4,4-1[8:1],4,4w8[8:1],,,,,,,,6-1[8:1]/2-5[8:1],,,,6b/2b,,,,
{8}8-3[8:1],,2-6[8:1]/8^6[8:1],,2qq3[2:1],,5,5,,6,,7,7-4[8:1],,27,,1-5[8:1],6,1^6[8:1],,13,,2,2-6[8:1],,2/7-4[8:1],,7,8-3[8:1],,68,,
7-4[8:1],4-7[8:1],7>3[4:1],,3<7[4:1],,1,,2pp1[2:1],,8,8,,6,6,,15,15,{24}1,8,7,6,5,4,3,2,1,8,7,6,5,6,7,8,1,2,3,4,5,6,7,8,{16}12,,,,37,,73,,2,6,2,6,
{8}1-6[8:1],,7-3[8:1]/1^3[8:1],,7pp6[2:1],,4,4,,3,,2,2-5[8:1],,72,,8-4[8:1],3,8^3[8:1],,86,,7,7-3[8:1],,7/2-5[8:1],,2,1-6[8:1],,31,,
7-5[8:1],,8-4[8:1]/7,,1-5[8:1]/8,,2-4[8:1]/1,,27,,1-4[8:1]/8-5[8:1],,18,,63,27,
18,1,27,7,36,3,45,5,{16}3,4,3,,6,,5,,7,4,7,4,8,3,8,3,
{8}1-5[8:1],2<3[8:3],1,2,,8,7,6,5-1[8:1],3<1[16:5],5,3,,4,5,6,
7-3[8:1],3>5[4:1],7,5-1[8:1],,,2,2,8-3[8:1],3>5[4:1],8,5-8[8:1],,4,3,2,
1-5[8:1],7>4[4:1],1,7,,1,2,3,4-7[8:1],6>8[16:5],4,6,,5,4,3,
2-6[8:1],6<4[4:1],2,4-8[8:1],,,7,7,1-6[8:1],6<4[4:1],1,4-1[8:1],,5,6,7,
8-6[8:1],1,8,1,8-5[8:1],2,8,2,8-4[8:1],3,8,3,25,,78,78,
1-3[8:1],8,1,8,1-4[8:1],7,1,7,1-5[8:1],6,1,6,74,,21,21,
8-4[8:1],3-8[8:1],8,3,5-7[8:1],1-4[8:1],5,1,8-5[8:1],2-4[8:1],8,2,7-5[8:1],4-8[8:1],7,4,
6-3[8:1],1-6[8:1],6,1,4-7[8:1],8-3[8:1],4,8,6-1[8:1],2-5[8:1],6,2,8,8,17,17,2b/6b,,,3b/5b,1b/7b,,8b<5[2:1]/4b>1[2:1],,,,,,,,,,
{2}3b/7b,,,
6h[2:1],{8}5,,5,6,4,,4,5,3,,,,2h[2:1],,,,4,,4,2,6,,5,3,7,,,56,,,24,,
1,,1h[1:1],,,,8h[2:1],,,,,,,,18,,
2^5[2:1],,,6,6,,7h[2:1],,,,4,,65,,3,3,4^7[2:1],,,1,1,,2h[2:1],,,,8,,37,,,,
8-5[2:1],,,2,2,,3h[2:1],,,,4,,25,,7,7,4-1[2:1],,,6,6,,5h[2:1],,,,2,,3bz7[2:1]/4bs8[2:1],,,,,,,,
{12}1,2,3,8,7,6,
{8}1-6[8:1],,1^3[8:1]/8-4[8:1],,1^6[8:1]/8,,14,2-6[8:1],,25,,7/8,1-3[8:1]/6-4[8:1],,16,,2-5[8:1],1,2^7[8:1],,2pp1[8:3]/4,,26,7qq4[2:1],,7,,1,1,,3,,
2-5[8:1],,1-6[8:1],,8-3[8:1],,7-4[8:1],,1qq2[2:1],,4,4,,6,6,,37,73,
{24}8b,1,2,3,4,5,6,7,8,1,2,3,4,3,2,1,8,7,6,5,4,3,2,1,{8}87,,{16}12,,12,,8,3,8,3,
{8}8-3[8:1],,8^6[8:1]/1-5[8:1],,8^3[8:1]/1,,85,7-3[8:1],,74,,2/1,8-6[8:1]/3-5[8:1],,83,,7-4[8:1],8,7^2[8:1],,7qq8[8:3]/5,,73,2pp5[2:1],,2,,8,8,,6,,
7-4[8:1],,8-3[8:1],,1-6[8:1],,2-5[8:1],,7-3[8:1],,8-4[8:1],,1-5[8:1],,2,2,6,6,3,3,7,7,1,1,
{16}8,2,8,2,8,2,8,2,{32}8,7,6,5,4,3,2,1,8,7,6,5,4,3,2,1,
{8}
8b,8,85,7,61,1,31,2,48,8,82,7,65,5,85,47,63,21,87,8,86,1,42,4,43,6,75,5,51,3,84,62,
1b,1,14,2,38,8,68,7,51,1,17,2,34,4,14,52,36,78,12,1,13,8,57,5,48,{16}7,6,5,,65,,7,4,8,3,1,2,,,
{8}1-7[8:1]*^6[8:1],,2/1-5[8:1],,1
,7,8<5[8:1],,8-2[8:1]*^3[8:1],,7/8-4[8:1],,8,2,1,,
8/7-3[8:1],4/3-7[8:1],7/1pp4[2:1],,1,,7,,5-1[8:1],,6/5^8[8:1],,52,,1,1,
8,57,3,42,7,65,1,34,2,17,8,64,3,51,{16}15,62,37,48,{8}1-5[8:1],,15,,37,,26,{16}8,4,7,3,6,2,5,1,8,4,7,5,6,2,4,3,8,1,2b/7b,
