&title=ハートアタック
&artist=Omoi feat. +α/あるふぁきゅん。
&first=2.977
&des=Mirai
&lv_5=14
&inote_5=(225)
{1}4h[1:1],
{1}5h[1:2],
{1}Ch[1:1],
{16},,,,,,,,,,,,1,8,1,8,
{8}1x-5[8:1],1x,8-6[8:1],8,1,1,{16}4,5,6,7,
{8}8x-4[8:1],8x,1-3[8:1],1,8,8,{16}5,4,3,2,
{8}1x-7[8:1],1x,6-2[8:1],6,3,3,{16}1,8,7,6,
{8}5x-3[8:1],5x,2-6[8:1],2,7,7,{16}4,5,4,5,
{8}4x-8[8:1],4x,5-7[8:1],5,4,4,{16}1,8,7,6,
{8}5x-1[8:1],5x,4-2[8:1],4,5,5,{8}3,3,
{16}2,6,2,6,4,5,4,5,3,7,3,7,1,8,1,8,
{16}1x,8x,2x,7x,3x,6x,4x,5x,4b,,,,,,,,
{4}E7/Cf/E3,,,,
{8},,,,18,18,27,,
{8}2-5[8:1],,6,7-3[8:1],,2,1>4[8:1],,
{8}7,6-2[8:1],,4,4,,8x,,
{8}3,2,34,5,34,2,34,5,
{8}6,7,56,4,56,7,56,4,
{8}3,2,15,6,37,4,45,6,
{4}2x-5[8:1]/7x-4[8:1],2x/7x,Ch[4:1],,
{4}3h[4:1],,1-5[8:1]/6-8[8:1],,
{8}7,7-3[8:1],,4,4-1[8:1],,E6/B5,,
{12}7,6,5,3,2,1,6,7,8,2,3,4,
{12}7,5,6,3,4,2,6,8,7,2,1,3,
{8}6,7,65,4,65,7,65,4,
{8}3,2,43,5,43,2,43,5,
{8}6,7,82,3,45,6,26,3,74,
{8},18,1-5[8:1]/8-4[8:1],,,,3,
{4}3h[4:1]/7h[4:1],,2h[4:1]/6h[4:1],,
{8}8,8qq3[8:3],,4h[4:1],,,4,,
{4}4-7[8:1],6,5-2[8:1],3,
{4}3-8[8:1],7,6-1[8:1],2,
{8}4h[4:1],,5,5,5,5,5,5,
{8}46,46,37,37,28,28,1,1,
{16}8x,1,7,2,8x,1,7,2,8x,1,7,2,8x-4[8:1],,,,
{8}1b/8b/Cf,,,,{16}3,,3,4,2-4[8:1],,,,
{8}2/1-5[8:1],,2-4[8:1]/1,,2/1-5[8:1],,2-4[8:1]/1,,
{8}12,,8,,{16}6,,6,5,7,,,,
{8}8<4[4:1],,3<7[4:1],2,1,,3,,
{8}1-5[8:1],,,,{16}7,,7,3,7,,,,
{8}8,,8h[8:1]/4,4,8h[8:1]/3,3,8h[8:1]/2,,
{8}1,,1h[8:1]/5,5,1h[8:1]/6,6,1h[8:1]/7,,
{8}8b-4[8:1],,2,2b-5[8:1],,2/6b<4[8:3],,6/3bh[8:3],
{8},,,,54,{16}6,5,7-5[8:1],,,,
{8}7/8-4[8:1],,7-5[8:1]/8,,7/8-4[8:1],,7-5[8:1]/8,,
{8}87,,1,,{16}3,,3,4,2,,,,
{8}1>5[4:1],,6>2[4:1],7,8,,6,,
{8}8-4[8:1],,,,3h[4:1],,2h[4:1],,
{8}1x-4-2-5[8:3],,5,6,7,,38,,
{8}8x-5-7-4[8:3],,4,3,2,,61,,
{4}7h[8:1]/4h[8:1],3h[8:1]/5h[8:1],2h[8:1]/8h[8:1],1h[8:1]/6h[8:1],
{8}45,,3,2,1,8,7,6,
{4}4h[1:1],7,E6/B5,8,
{4}6h[1:1],1,E4/B4,2,
{4}3h[1:1],8,E6/B5,7,
{4}5h[1:1],2,E4/B4,1,
{4}4-8[2:1],8,7,6,
{4}5-1[2:1],1,2,3,
{16}2x/7x,,,,8,,3,4,3x,,,,1,,6,5,
{16}6x,,,,8,1,8,1,7,2,7,2,{32}8x,1,2,3,4,5,6,7,
{16}8xb/4b,,,,2,5,2,5,3,4,3,4,{32}2x,1,8,7,6,5,4,3,
{16}2xb/6b,,,,7,5,7,5,6,4,6,4,{32}7x,8,1,2,3,4,5,6,
{16}7xb/3b,,,,3,4,3,4,2,4,2,4,{32}1x,8,7,6,5,4,3,2,
{16}1xb/5b,,,,7,1,7,1,6,8,6,8,{32}6x,5,4,3,2,1,8,7,
{16}6xb/2b,,,,4,5,4,5,3,6,3,6,{32}4x,5,6,7,8,1,2,3,
{8}4xb-1[8:1]/8b-5[8:1],,48,,26,3,37,,
{4}2-5[8:1]/1-4b[8:1],21,7-4[8:1]/8-5b[8:1],78,
{8}3b/6b,,1,8,2,7,1,8,
{8}2h[4:1],,B7/B6,2h[8:1],B4/E4,2h[8:1],B1/E1,2h[8:1],
{8}7h[4:1],,B2/B3,7h[8:1],B5/E6,7h[8:1],B8/E1,7h[8:1],
{8}3h[4:1],C,5h[4:1],E7,4h[4:1],E2,6h[4:1],E8,
{8}1pp3[8:1],1,5pp7[8:1],5,1,1,26,,
{8}5pp4[4:1],,4>5[4:1],,2h[8:1],,2,,
{8}4qq5[4:1],,5<4[4:1],,7h[8:1],,7,,
{12}8,4,4,7,3,3,6,2,2,5,3,7,
{12}1,5,5,2,6,6,3,7,7,C,,,
{8}35,3h[4:1]/5,5,5,46,35,46,35,
{8}4h[8:1]/6h[8:1],,5h[8:1]/3h[8:1],,46,7,35,2,
{8}64,6h[4:1]/4,4,4,53,64,53,64,
{8}5h[8:1]/3h[8:1],,4h[8:1]/6h[8:1],,53,2,64,7,
{16}18,,2,3,45,,7,6,45,,1,2,35,,8,7,
{16}64,,3,2,18,,6,7,18,,4,3,28,,7,,
{16}4,3,2,1,7,6,5,4,8,1,2,3,5,6,7,8,
{16}2,1,2,1,2-6[8:1],1,2,1,2b,,,,,,,,
{4}8h[4:3]/Cf,,,,
{4}3h[4:3]/Cf,,,,
{4}6h[4:3]/Cf,,,,
{4}1h[4:3]/Cf,,,,
{4}5p4[2:1]/3,,,,
{4}1p8[2:1]/7,,,,
{4}5w1[2:1],,,,
{4}E7/B7/B6/Cf/B2/B3/E3,,{16}54,,3,4,2-4[8:1],,,,
{8}2/1-5[8:1],,2-4[8:1]/1,,2/1-5[8:1],,2-4[8:1]/1,,
{8}12,,8,,{16}6,,6,5,7,,,,
{8}8<4[4:1],,3<7[4:1],2,1,,3,,
{8}1-5[8:1],,,,6h[4:1],,7h[4:1],,
{8}8x-5-7-4[8:3],,4,3,2,,61,,
{8}1x-4-2-5[8:3],,5,6,7,,38,,
{4}2h[8:1]/5h[8:1],6h[8:1]/4h[8:1],7h[8:1]/1h[8:1],8h[8:1]/3h[8:1],
{8}54,,6,6,4,4,5,5,
{4}5/3h[4:1],1,4/2h[4:1],8,
{4}B6/E6/3h[4:1],A1,B3/E4/2h[4:1],A8,
{4}4/6h[4:1],8,5/7h[4:1],1,
{4}B3/E4/6h[4:1],A8,B6/E6/7h[4:1],A1,
{4}82,83,84,8/C,
{4}17,16,15,1/C,
{16}7x/2x,,,,1,,6,5,6x,,,,8,,3,4,
{16}3x,,,,1,8,1,8,2,7,2,7,{32}1x,8,7,6,5,4,3,2,
{16}1bx/5b,,,,7,4,7,4,6,5,6,5,{32}7x,8,1,2,3,4,5,6,
{16}7bx/3b,,,,2,4,2,4,3,5,3,5,{32}2x,1,8,7,6,5,4,3,
{16}2bx/6b,,,,6,5,6,5,7,5,7,5,{32}8x,1,2,3,4,5,6,7,
{16}8bx/4b,,,,2,8,2,8,3,1,3,1,{32}3x,4,5,6,7,8,1,2,
{16}3bx/7b,,,,5,4,5,4,6,3,6,3,{32}5x,4,3,2,1,8,7,6,
{8}5bx-8[8:1]/1b-4[8:1],,51,,73,6,62,,
{8}8-4b[8:1]/7-4[8:1],87,,,1-5[8:1]/2-5b[8:1],12,,,
{16}6xh[16:3],,,8xh[16:3],,,1xh[8:1],,3b,,,,8,1,8,1,
{8}8x-4[8:1],8x,1-3[8:1],1,8,8,{16}5,4,3,2,
{8}1x-5[8:1],1x,8-6[8:1],8,1,1,{16}4,5,6,7,
{8}8x-2[8:1],8x,3-7[8:1],3,6,6,{16}8,1,2,3,
{8}4x-6[8:1],4x,7-3[8:1],7,2,2,{16}5,4,5,4,
{8}5x-1[8:1],5x,4-2[8:1],4,5,5,{16}8,1,2,3,
{8}4x-8[8:1],4x,5-7[8:1],5,4,4,{8}6,6,
{16}2,5,2,5,4,7,4,7,3,5,3,5,4,6,4,6,
{16}2,3,4,5,8,7,6,5,1b,,,,1,8,1,8,
{8}1>3[8:1],7,1-5[8:1],7,1,7,{16}1,2,3,4,
{8}8<6[8:1],2,8-4[8:1],2,8,2,{16}8,7,6,5,
{8}4>2[8:1],6,4-8[8:1],6,4,6,{16}4,3,2,1,
{8}5<7[8:1],3,5-1[8:1],3,5,3,{16}5,6,7,8,
{8}1-3[8:1],6,1-7[8:1],6,1,6,{16}1,2,3,4,
{8}8-6[8:1],3,8-2[8:1],3,8,3,{16}8,7,6,5,
{16}3,5,3,5,4,6,4,6,2,5,4,7,4,7,2,5,
{16}3,6,4,5,2,7,4,5,{8}1x,1x-4[8:1]/8x-5[8:1],1x/8x,1bx/8bx/E7/B7/B6/Cf/B2/B3/E3,
