&title=Going Hypersonic
&artist=Mameyudoufu
&first=0.05
&lv_5=14
&des=The Musical Ghost
&inote_5=(156){4},,,,
8h[4:3]/C,,,{32}1x,2,3,4,5,6,7,8,
{4}1b/5b,B6,B7,E8,
E4,B3,B2,E2,
E6,E7,E8,E4,E3,E2,Ch[4:1],{32}1x,2,3,4,5,6,7,8,
{4}1b/5b,{16}4/7,,6,5,6,5,6,,4h[8:1]/7h[8:1],,,,8x,,1,,
5/2,,3,4,3,4,3,,5h[8:1]/2h[8:1],,,,
1x,8,2,7,3,6,4,5,
{32}E5,E6,E7,E8,E1,E2,E3,E4,{4}E5/Cf,
{16}5/1b-5[234#8:1],,,1/7b-3[234#8:1],,,7/2b-6[234#8:1],,,8bw4[234#8:1],,,
Cf/B8/B4/B5/B3,,,,
1bx/7bx,{16},3,4,3h[8:1],,5,4,,6,5h[8:1],,
1,2,8,3,7h[8:1],,5,6h[8:1],,4,5h[8:1],,3,4h[8:1],,8,7,1,6,2,
5h[8:1],,3,4,3h[8:1],,5,4,,6,5,,8/4,7/3,6/2,5/1,8x-3[12:1]/4x-7[12:1],,,,8/4,,,7x/5x,,2x/4x,,1/8,,5/4,,,
8bx/2bx,{16},6,5,6h[8:1],,4,5h[8:1],,3,4,,8,7,1,6,
2h[8:1],,4,3h[8:1],,5,4h[8:1],,6,5h[8:1],,1,2,8,3,7,
4h[8:1],,6,5,6h[8:1],,4,5,,3,4,,1/5,2/6,3/7,4/8,1x-6[12:1]/5x-2[12:1],,,,
{16}5/1b-5[8:1],,,,1/7b-3[210#8:1],,,7/2b-6[210#8:1],,,8b,,
{16}E8,,,E7,,,E6,,E2,,,E3,,,B3,B4,E5,,E7,E3,,,C,,E1/B8/B1,,,,E7,B6,B5,E5,A3,,,A2,,,A1,,A6,,,A7,,,A8,,
{16}3x/B1/B2,,,,B3/B4/8x,,2x,3x,B7/B8/4x,,,,B6/B5/7x,,,,
{16}5h[4:1]/6x,,,7,,,8,,4h[4:1]/3x,,,2,,,1,,6x/5x,,,3x/4x,,1-5[200#8:1]/8-4[200#8:1],2/7,,8bx/1bx,,,,
2,6,1,7,8x,8,7,7,6x,6,5,5,
{32}4x,3,2,1,8,7,6,5,4x,3,2,1,8,7,6,5,
{16}4x/8b-4[234#8:1],,,8/2b-6[234#8:1],,,2/7b-3[234#8:1],,,1bw5[234#8:1],,,
Cf/B1/B5/B4/B6,,,,
1bx>8[8:3]*<2[8:3],,,,,,,,,,,,C/B8/B2/B4/B6,,,,
7bh[4:1]/1b,,,,5,6,4,5,3h[8:1],,,2h[8:1]/4h[8:1],,,1/5,,
2h[4:1]/8,,,,4,3,5,4,6h[8:1],,,7h[8:1]/5h[8:1],,,8/4,,
C,,6x,5,8,1,4,3,8,1,6,5,8,1,4,3,
{8}2x-7[8:1]/6x,1,2/6-3[8:1],5,2-7[8:1]/6,1,2/6-3[8:1],5,6b/2x,,
{16}8,7,1,8,2h[8:1],,,3h[8:1]/1h[8:1],,,4/8,,
3h[4:1]/5,,,,1,2,8,1,7h[8:1],,,6h[8:1]/8h[8:1],,,5/1,,
C,,7x,8,5,4,1,2,5,4,7,8,5,4,1,2,
8xp4[16:1],,8,,2xq6[16:1],,2,,1xw5[8:1],,1bh[16:1],,Cf,,,,
{4}5hxb[8:8]/1xbq1-3-5-7-1>1b[8:9],,,,,
{16},,,,8,8,8,8,1b/7b,,,,
2bh[4:1]/8b,,,,4,3,5,4,6h[8:1],,,7h[8:1]/5h[8:1],,,8/4,,
{8}7x-2[8:1]/3x,8,7/3-6[8:1],4,7-2[8:1]/3,8,7/3-6[8:1],4,3b/7x,,
{16}1,2,8,1,7h[8:1],,,6h[8:1]/8h[8:1],,,5/1,,
3,4x/3x,,6,5x/6x,,2-5[100#16:1]/7-4[100#16:1],2x/7x,,1/8,1x/8x,,2b/7b,,,,
C,,1x,8,3,4,2,4,1,8,5,6,5,7,1,8,
1xq5[16:1],,1,,7xp3[16:1],,7,,8xw4[8:1],,8bh[16:1],,Cf,,,,
{4}2bpp5[4:5],,,,D7/E7,,D8/E8,,
6pp1[4:5],,,,D3/E3,,D4/E4,
{32}8x,7,6,5,4,3,2,1,
{4}8bxh[4:1]/4bxh[4:1],,
{16}2bxh[8:1]/6bxh[8:1],,,1h[8:1]/5h[8:1],,,26,,
{16}8bxh[8:1]/5h[8:1],,,7h[8:1]/4h[8:1],,,6/3,,
1bxh[8:1]/4h[8:1],,,2h[8:1]/5h[8:1],,,3h[8:1]/6h[8:1],,
7b-4[16:1]/4,,,2b-5[16:1]/7,,,8b-3[16:1]/2,,,1b-6[16:1]/8,,,8xb/1,,8xb,,
2hx[16:2]/7x-3b[52#32:1],,7x,,2hx[16:3],7xh[16:2],,,2x/7hx[16:1],2xh[16:2],,7x,
{32}B7,C,B3,,,,,,
{16}1xb/2xb,,2,3,,3,4,,4/5,,5,6,,6,7,8,
{8}1x-5[8:1]/2x,8,1/2-6[8:1],3,1-5[8:1]/2,8,1/2,3,
{16}4b/3b,,3,2,,2,1,,1/8,,8,7,,7,6,5,
{8}4x-8[8:1]/3x,5,4/3-7[8:1],2,4-8[8:1]/3,5,4/3,2,
{16}7xb/8bx
,,5/6,4,3,2,1,8,7x,6,5,4,8x,7,6,5,2x,3,4,5,1x,2,3,4,
2h[8:1],,8,1h[8:1],,7,8,,7x/2x,,
6-1[8:1],5,,5,6,,2x,,3-8[8:1],4,,4,3,,
7x,,5/6,,2x,,3/4,,1x-5[8:1]/8x-4[8:1],,2/7,,
{32}1b/8b,B8/B1,Cf,B5/B6/B4/B3,,,,,
{16}8xb/7xb,,7,6,,6,5,,5/4,,4,3,,3,2,1,
{8}8x-4[8:1]/7x,1,
{32}8/7-3[8:1],C,,,6,,,,8-4[8:1]/7,C,,,1,,,,8/7,C,,,6,,,,
{16}5b/6b,,6,7,,7,8,,8/1,,1,2,,2,3,4,
{32}5x-1[8:1]/6x,,,,4,,,,5/6-2[8:1],C,,,7,,,,5-1[8:1]/6,C,,,4,,,,5/6,C,,,7,,,,
{16}4/8b-4[234#8:1],,,8/2b-6[234#8:1],,,2/7b-3[234#8:1],,,1bw5[234#8:1],,,
Cf/B1/B5/B4/B6,,,,
7b/5b,7x/5x,,2b/4b,2x/4x,,{32}1x-5b[120#12:1]/8x-4b[120#12:1],2x/7x,3x/6x,4x/5x,,,7/2,,,,
{32}8bx/1bx,Cf,,
{16},,,1x/2x,,3/4,,5/6,,7/8,,
{32}1x/5b,2,3,4,5/1b,6,7,8,1x/5b,2,3,4,5/1b,6,7,8,
{16}1x/5b-1b[234#8:1],,,5/3b-7b[234#8:1],,,3/6b-2b[234#8:1],,,4bw8b[234#8:1],,,Cf,,,,
7x,5,6,2,4,3,8,4,6,1,5,3,8w4b[8:1],4,6,2,8b,
E
