&title=恋に踊れば
&artist=あ~るの~と【東方ロストワード】
&first=0
&des=哈基恋那般律动
&clock_count=4
&lv_5=13+
&inote_5=(80)
{1},
{16}4-7[16:1],5-8[16:1],6-1[16:1],,,,,,5-2[16:1],4-1[16:1],3-8[16:1],,,,,,
{16}7-2[16:1],5-2[16:1],1s5[32:3],,,,,,2-7[16:1],4-7[16:1],8z4[32:3],,,,,,
{16}7-4[16:1],3-6[16:1],5-1[16:1],,,,,,2-7[16:1],8-3[16:1],1-5[16:1],,,,,,
{16}7V15[16:2],3-5[16:1],5w1[16:1],,,,,,3V51[16:2],7-1[16:1],1w5[16:1],,,,,,
{16}3>5[16:8],,3<5[16:1],,,,3q5[16:4],,,,,,,,,,
{16}6>4[16:1],,6<4[16:8],,6p4[16:6],,,,,,,,,,,,
{16}7p3[32:3],,8pp2[32:4],,,,8qq5[32:8],,1pp2[32:4],,,,1-6[32:2],,,,
{16}7-2[32:2],,,4-1[16:1],3<2[16:5],,,,,,,,,,,,
{16}6<5[16:4],,,,5q8[16:4],,,,,,,,2>1[16:4],,,,
{16}1q4[16:4],,,,4<3[16:4],,,,,,,,6<5[16:4],,,,
{16}2p1[16:3],,,,2>1[32:8],,,,,,,,6>7[16:4],,,,
{16}2q3[16:3],,,,2<3[32:8],,,,,,,,6-1[16:1],,,,
{16}2-4[32:2],,2-8[32:2],,5-1[32:3],,,,7-5[32:2],,7-1[32:2],,4-8[32:3],,,,
{16}2-4[32:2],,7-4[32:3],,2-6[32:3],,,,2V48[16:3],,,,7-5[16:1],,,,
{16}7-3[32:3],,2-8[32:2],,,,2-5[32:3],,6-3[32:3],,2-7[32:3],,,,2qq3[32:19],,
{16}6qq7[32:19],,,,,,,,,,,,,,,,
{16}4-2[16:1],4-6[16:1],4-1[16:1],4-7[16:1],4-8[16:1],,,,,,6-1[16:1],,2q6[16:1],,,,
{16}8-6[16:1],8-2[16:1],8-5[16:1],8-3[16:1],8-4[16:1],,,,,,2-5[16:1],,6s2[32:3],,,,
{16}3<5[16:1],3<6[16:1],3<7[16:1],3<8[16:1],3<1[16:1],,,,,,2z6[32:3],,6z2[32:3],,,,
{16}1<7[16:1],1<6[16:1],1<5[16:1],1<4[16:1],1<3[16:1],,,,,,2s6[32:3],,6-2[32:2],,,,
{16}7-5[16:1],7-4[16:1],7-3[16:1],7-2[16:1],7-1[16:1],,,,,,4v2[16:1],,8p4[16:1],,,,
{16}3-1[16:1],3-8[16:1],3-7[16:1],3-6[16:1],3-5[16:1],,,,,,7v5[16:1],,4>1[16:1],,,,
{16}6-8[16:1],6V85[16:1],6V84[16:1],6V83[16:1],6V82[16:1],,,,,,5<8[16:1],,1p5[16:1],,,,
{16}2-4[16:1],2V41[16:1],2V48[16:1],2V47[16:1],2V46[16:1],,,,,,1-5[16:1],,5-1[16:1],,,,
{16}8<6[16:1],6q2[16:1],2>4[16:1],4-8[16:1],8-5[16:1],,,,,,2-7[16:1],,4-8[16:1],,,,
{16}1>3[16:1],3p7[16:1],7<5[16:1],5-1[16:1],1-4[16:1],,,,,,7-4[16:1],,5-8[16:1],,,,
{16}1<6[16:1],2-6[16:1],1-5[16:1],2>5[16:1],,,,,7-2[32:2],8-3[32:2],1-6[32:2],,,,,,
{16}4-2[16:1],5-7[16:1],3-8[16:1],6-1[16:1],,,,,2-5[16:1],7-4[16:1],3-8[16:1],,,,,,
{16}1pp1[8:1],7qq7[8:1],1V74[32:3],7V15[32:3],,,,,3qq5[32:6],,7-4[32:2],,,,,,
{16}6qq7[8:1],3pp2[8:1],7V15[32:3],2V84[32:3],,,,,6V41[32:4],,1V73[32:3],,,,,,
{16}2-7[16:1],1-6[16:1],8-3[16:1],7-2[16:1],,,,,4-7[16:1],5-8[16:1],3v1[16:1],,,,,,
{16}6v8[16:1],2v4[16:1],7v5[16:1],3v1[16:1],,,,,6-3[16:1],8-5[16:1],2-7[16:1],4-1[16:1],,,,,
{1}5b<4[4:7]*<2[4:5]*<8[4:3]*<6[4:1],,
E
