&title=アガリ症
&artist=にほしか
&first=0
&des=我有アガリ症
&lv_5=13+
&des_5=我有アガリ症
&inote_5=
(88){4},,,,1pp1[4:1],
1,8qq8[4:1],8,
{8}1-5-8[4:1]*-4[8:1],1,{4}1,1>6[4:1],6<3[4:1],
{8}3<8[4:1],5,{4}7,5pp4[4:1],4qq5[4:1],
{1}1z5[0.675##2.1532],
(208){4}8,8,8,8,
8x-4[8:1],2x-6b[8:1],1b,8bw4[8:1],
8,{8}2/6,6/2-5[8:1],,6,{4}7<4[8:1],
1pp4[2:1],5,{8}6,6,{4}6,
3/7-4V61[2:1],{8}2,2,,4,{4}4-8[8:1],
7-4[8:1],2-6[8:1],5-2[8:1],3-7[8:1],
8p5[2:1],{8}4,4,,3,{4}3,
2-4[8:1]/5-1[8:1],2/5,{8}8,5,7,4,
{2}6h[1:1],{8}E1,E8,E7,E6,
{4}5x,3/4,1/2,7/8w4[8:1],
A8,{8}2/6,6/2-5[8:1],,6,{4}7<4[8:1],
1pp4[2:1],8,{8}7,6,{4}5,
{8}5pp3[2:1],3,{4}2,8x,1,
1-5[8:1],{8}8-4[8:1],8,3-8[8:1],3,6-1[8:1],6,
{4}4p1[2:1],{8}8,8,,6,{4}6,
2>4[8:1]/5p1[8:1],2/5,{8}8,5,7,4,
6h[1:1],,,E1,,E8,E7,E6,
{4}5x,4/3,1b/8b,2/7,
{8}6/3>7[4:3],,,6,{4}6,5,
{8}4>7[4:3],,,6,{4}6,5,
{8}5>7[4:3],,,6,{4}6,5,
{8}5<1[4:3],,,2,{4}2,3,
{8}4>7b[4:3],,,6,{4}6,5,
{8}5-1[8:1],,,2,2-7[8:1],,,8,
{4}8-5[8:1],{8}4,3,{4}2-7[8:1],2,
5b,{8}7/2,{16}8,1,{8}8-4[8:1],2,{4}8pp8[4:1],
8,7v4[8:1]*-5[8:1],7,{8}2-5[8:1],1-6[8:1],
2,1,{4}3>7>3[2:1],{2}4h[4:1],
{4}7-4[8:1],{8}4,3,{4}2-6[8:1],{8}1,8,
{4}7-3[8:1]*-4[8:1],7,1-4[8:1]*-6[8:1],1b,
{2}3>8[8:1]/7<4[8:1],1q5[8:1]/5q1[8:1],
4-1[8:1]/8-5[8:1],{4}4/8w4[8:1],8,
2/6,7/5,4/3,2/1,
7<5[8:1]/8p4[8:1],7/8,{8}3,1,7,5,
{1}3h[4:3]/1qq5[8:9],
{4}4-2[8:1],4,,,4b/8b<3b[4:1],
{8}2,1,{4}8>5b[4:1],{8}6,7,
8-4[8:1],2,{4}8,5-7[8:1]/8-4[8:1],8/5,
{8}8-4[8:1],2,{4}8,5-7[8:1]/8-4[8:1],5/8-2[8:1]*-3[8:1],
8b,{8}4-1[8:1],6-1[8:1],4,6,2-5[8:1],5V36[4:1],
2,,,8,7,6,5-1[8:1],4,
{4}3x-7[8:1],3x/8-5[8:1],8x/4-8[8:1],4x/6-2[8:1],
6x/4V28[4:1],8xV64[4:1],4x>8[4:1],{16}8,7,6,5,
{4}4xw8[8:1],4b,{8}5/4,3,2/1,8,
{4}7-5[8:1]/5-3[8:1],7/5-1[8:1],2-5[8:1]*-4[8:1],2b<6b[4:1],
{8}6,5,{4}4-8b[8:1],4,{8}2/6-1[8:1],3,
{4}4,{8}2/6-1[8:1],3,{4}4,5w1b[8:1],
5,{8}7/3-8[8:1],6,{4}5,1-5[8:1]/6-8[8:1],
{2}1b/6b,{8}6/5,7,8/1-5[8:1],2,
{4}3>1[8:1],4p8[8:1],5q1[8:1],6<1<6[8:3],
{2}5b,{8}5/3,2,1/8-4b[8:1],7,
{4}6<8b[8:1],5q1b[8:1],4p8b[8:1],3>8>3b[8:3],
{2}4b,{8}6/4,6/4,7/3,7/3,
{4}2x-4[8:1]/8x-4[8:1],8x-6[8:1]/2x-6[8:1],2x-4[8:1]/8x-4[8:1],2x/8x,
1/5h[4:1],C,8/4h[4:1],C,
2/6h[4:1],C,8/4h[4:1],C,
5/1,6/2,4/8h[4:1],C,
5/1h[4:1],C,3/7h[4:1],C,
E2,E4,E8,E6,
{2}E3h[1:2],E7h[2:3],
{1}Cfh[1:1],
{4},,1-3[8:1]*-7[8:1],1w5[8:1],
A1,{8}7/3,3/7-4[8:1],,3,{4}2>5[8:1],
8qq5[2:1],4,{8}3,3,{4}3,
5/2-5V38[2:1],{8}6,6,,7,{4}7>2[8:1],
3<6[8:1],8<5[8:1],4>1[8:1],8,
3/7pp5[2:1],{8}4,4,,3,{4}3qq3[8:3]*pp3[8:3],
{8},,,,8,5,7,4,
{2}6h[1:1],{8}E1,E8,E7,E6,
{4}5x,3/4,1/2,8/7,
{8}6h[4:1],5h[4:1],,,3h[4:1],4h[4:1],,,7h[4:1],
5h[4:1],,,2h[4:1],4h[4:1],,,{4}8h/1h,
6h/7h,4h/5h,2h/3h,
1h/8h,{8}2h,4h,3h,5h,4h,6h,
{2}5-1[8:1],{8}7h,8h,6h,1h,
5<8[8:1],,,3h[8:5],,2xh,4xh,5xh,
6xqq2[1:1],,,1x,,E2,B2,B3,
{2}E4,{4}1b/8b,7/2,
{8}6/3>7b[4:3],,,6,{4}6,5,
{8}4>7[4:3],,,6,{4}6,5,
{8}5>7b[4:3],,,6,{4}6,5,
{8}5<1[4:3],,,2,{4}2,3,
{8}4>7b[4:3],,,6,{4}6,5,
{8}5-1[8:1],,,2,2-7b[8:1],,,8,
{4}8-5[8:1],{8}4,3,{4}2-7b[8:1],5-8[8:1],
5,{8}7/2,{16}8,1,{8}8-4[8:1],2,{4}8pp8[4:1],
8,7v4[8:1]*-5[8:1],7,{8}2-5[8:1],1-6[8:1],
2,1,{4}3>7>3[2:1],{2}4h[4:1],
{4}7-4[8:1],{8}4,3,{4}2-6[8:1],{8}1,8,
{4}7-3[8:1]*-4[8:1],7,1-4[8:1]*-6[8:1],1,
7-2[8:1]/3-6[8:1],7/3,{8}8/4,7,6,5,
{4}4-7[8:1]/2-7[8:1],4/2,8xw4[8:1],8,
2/6,7/5,4/3,2/1,
7<5[8:1]/8p4[8:1],7/8,{8}3,1,7,5,
{1}3h[4:3]/1qq5[8:9],
{4}2-4[8:1],2,,,{1}6-8-5-1[1:3]/2pp2b[1:3],
,,{4},,{8},8b/1b,
8b-4b[8:1]/1b-5b[8:1],1b/8b,
8b/1b,,,3/6,4,5,6/8-4[8:1],1,
{4}2-6[8:1],2/5-8[8:1],5/1-5[8:1],1/7-3[8:1],
7/1>4[8:1],1/5<8[8:1],1b/5,{32}1x,2x,3x,4x,5x,6x,7x,8x,
{4}1xw5[8:1],1b,{8}7/3,2,6/1,8,
{4}7-5[8:1]/5-3[8:1],7/5-1[8:1],2-5[8:1]*-4[8:1],2b<6b[4:1],
{8}6,5,{4}4-8b[8:1],4,{8}2/6-1[8:1],3,
{4}4,{8}2/6-1[8:1],3,{4}4,5w1[8:1],
5,{8}7/3-8[8:1],6,{4}5,6<1b[8:1]/1>4b[8:1],
{2}1b/6b,{8}6/5,7,8/1-5[8:1],2,
{4}3>1[8:1],4p8[8:1],5q1[8:1],6<1<6[8:3],
{2}5b,{8}5/3,2,1/8-4b[8:1],7,
{4}6<8b[8:1],5q1b[8:1],4p8b[8:1],3>8>3b[8:3],
{2}4b,{8}6/4,6/4,7/3,7/3,
{4}8-4b[8:1]/2-4b[8:1],2-6b[8:1]/8-6b[8:1],2/8<4b[8:1],8/1xh[8:1],
{1}E4fh[2:7]/B4fh[2:7]/B3fh[2:7]/B7fh[1:3]/B8fh[1:3]/E8fh[1:3],
{4},,,,,,,,,,,,E8,
E6,E2,E4,
{2}6h[4:7],B7/B6/E7,
{8}B2h[4:3]/B3h[4:3]/E3h[4:3],,,,,,,7,
{4}7,{8}2,{16}8,8,{8}1,7-4[8:1],8,6,
E
