&title=輝夜の城で踊りたい
&artist=μ's
&first=0.036
&des=月の騎士
&lv_5=13
&inote_5=(135)
{1},
{16}5h[4:7],,,,4,,,,4,,,,4,,,,
{16}3,,,,3,,,,3,,,,3,,2x,,
{16}2>5[8:1],,,,6,,7,,7<4[8:1]/8,,,,3,,2,,
{16}2,1,,3h[16:5]/8,,,,,,,B3/E4,,B6/E6,,,,
{16}7<4[8:1],,,,3,,2,,2>5[8:1]/1,,,,6,,7,,
{16}7,8,,6h[16:5]/1,,,,,4-8[8:1],,3b,,2bq6[8:1],,,,
{16}7p3[8:1],,,,1q5[8:1],,,,6,,,,7p3[8:1]/8,,,,
{16}2>7[4:1],,,,1,,,,8,,,,8b/2bq6[8:1],,,,
{16}7p3[8:1],,,,1q5[8:1],,,,6,,,,6V47[4:1]/3,,,,
{16}2,,,,2,,8,1,8,,2b,,2b/8b,,,,
{16}6h[2:3],,,,E8,,,,E1,,,,E2,,,,
{16}E3,,,,E4,,,,5x,6,,6,5b,,,,
{16}2/8-5[8:1],,,,87,,,,8-4[8:1],,,,87,,,,
{16}8>3[8:1],,,,78,,6,6,5,,,,8h[4:1]/3,,,,
{16}1-4[8:1],,,,12,,,,1-5[8:1],,,,12,,,,
{16}1<6[8:1],,,,21,,3,3,4,,,,1h[4:1]/6,,,,
{16}5h[4:1],,6,,4h[4:1],,3,,6h[4:1],,8,,1-7[8:1],,,,
{16}1-5[8:1],,,,1V35[6:1]*q7[4:1],,,,,,,,,,,,
{16}74,,,,6,5,7,,3,4,2,,81,,36,,
{16},,74,,63,,52,,4,3,,1,8,,,,
{16}7/1-4[8:1],,,,12,,,,6/1-5[8:1],,,,12,,,,
{16}7/1<5[8:1],,,,31,,2,2,3x-5[8:1]*-7[8:1],,,,,,,,
{16}8x-5[8:1],,,,87,,,,3/8-4[8:1],,,,87,,,,
{16}2/8>4[8:1],,,,86,,7,7,6-4[8:1]*-2[8:1],,,,,,,,
{16}3xh[4:1],,1,,6h[4:1],,8,,2h[4:1],,3,,4-6[8:1]*-7[8:1],,,,
{16}4-1[8:1]*-2[8:1],,,,4-7V53[12:4]*-6[8:1],,,,,,,,,,,,
{16}25,,,,3,4,1,,6,5,8,,1-5[8:1]/7,,,,
{16}1/8-4[8:1],,,,7-3[8:1]/8,,,,71,,,,{48}E4,E5,E6,,,,,,,,,,
{16}2x>5[8:1],,,,1,,8,,7>2[8:1],,,,6,,5,,
{16}4<7[8:1],,,,2,,3,,4h[8:2],,B2/E2,,B7/E8,,,,
{16}6>3[8:1],,,,7,,8,,1<6[8:1],,,,2h[4:1],,,,
{16}5h[4:1],,8,,3h[4:1],,1,,6h[4:1],,8,,4h[4:1],,1,,
{16}7V53[4:1],,,,3V17[4:1],,,,8,,,,4,,,,
{16}4<8[4:1],,,,8>4[4:1],,,,4,,,,5,,,,
{16}6,,,,26,,,,37,,,,48,,,,
{16}65,,6/5>2[8:1],,,,5<8[8:1],,,,5-1[8:1],,,,{48}5,,,,,,
{16},,8,,65,,43,,2-5[8:1]/1-6[8:1],,,,2b/1b,,,,
{16}8/7-4[8:1],,6,,7b/3b,,,,1/2-5b[8:1],,3,,2b/6b,,,,
{16}8/7-4-2b[24:5],,6,,2-5b[8:1],,1,,1xw5b[8:1],,8xb,,1xb,,,,
{16},,7x,,64,,1,,75,,8,,64,,2,,
{16}81,,7,,64,,35,,4-8[8:1]*-6[8:1],,,,4b,,,,
{16}7/3-8[8:1],,,,8-4[8:1],,6,,5V38[8:2],,7,,7,,6,,
{16}5<3[8:2],,,,4x,,4,,4-8[8:1],,,,54,,6,,
{16}7h[8:1]/1h[8:1],,,5h[8:1]/6h[8:1],,,35,,12,,,,{16}46,,3,,
{16}4/2h[4:1],,,,1,,47,,6,5,6,5,6b,,,,
{16}2/1-5b[8:1],,3,,1b/6b,,,,7/8-4[8:1],,6,,8b/3b,,,,
{16}2/1-5-7[24:5],,3,,7-4[8:1],,8,,8w4[8:1],,1b,,8b,,,,
{16},,2,,35,,8,,24,,1,,35,,7,,
{24}8x/2x,3x,4x,5x,,,8x/2x,3x,4x,5x,,,8x/3x,4x,5x,6x,,,8x/3x,4x,5x,6x,,,
{16}4/8-4[12:1],,7,,3-5<1[4:1],,1,,1,,2,,4>2[8:1],,,,
{16}4<6[8:1]/7,,8,,14,,8,,7x-5[12:1]/4x-6[12:1],8x/3x,1x/2x,,7x/4x>6[4:2],,,,
{16}Cf,,,,5x,,,,5,,,,5,,6,4,
{16}8<5[8:1],,,,4/8>3[8:1],,,,4/8w4[8:1],,,,8,,,,
{16}78,,5,,12,,4,,56,,7b<1[8:2],,2b/1b,,4h[8:2],,
{16},,,,4,,3,,2-6[8:1],,,,8V24-6[14:9]*>7[8:6],,,,
{1},
{16}3h[4:2],,,,6,,,,4-8[8:1],,,,2bq6[8:1],,,,
{16}7<4[8:1],,8,,3<6[8:1],,2,,7,,,,7p3<6[4:1]/8,,,,
{16}1,,1,,2,,2,8,1,,1b,,8b/2bq6[8:1],,,,
{16}7<2[16:3],,8,,1>6[16:3],,8,,7,,,,7xp3[8:1]/8x,,,,
{16}2>7[16:3],,1,,8-4b[16:2],,1,,3,,,,5b/3bp7[8:1],,,,
{16}6<3[16:3],,5,,4>7[16:3],,5,,6,,,,6xv3<7[16:5]/5x,,,,
{16}1,,1,,2,,2,8,1,,1b,,2b/8b,,,,
{16}7h[4:1]/1h[4:1],,,,,,7h[4:1]/3h[4:1],,,,,,36,,6h[4:1]/3h[4:1],,
{16},,,,,,E7/B7/B6/Ch[8:4],,,,,,8x-5[2:4],,1x-4b[8:15],,
{1},,,
E
&inote_6=||backup
{1},
{16}1h[4:2],,,,6,,,,4-8[8:1],,,,2bq6[8:1],,,,
{16}7p3[8:1],,8,,2>5[8:1],,1,,6,,,,7p3[8:1]/8,,,,
{16}2q6[8:1],,1,,8-4[8:1],,1,,3,,2b,,1b/2bq6[8:1],,,,
{16}7<2[16:3],,8,,1>6[16:3],,8,,7,,,,7xp3[8:1]/8x,,,,
{16}2>7[16:3],,1,,8-4b[16:2],,1,,3,,,,5xb/3xbp7[8:1],,,,
{16}6<3[16:3],,5,,4>7[16:3],,5,,6,,,,6xq2[8:1]/5x,,,,
{16}3>6[16:3],,4,,5-1b[16:2],,4,,3,,2xb,,2xb/8xb,,,,
{16}7h[4:1]/1h[8:1],,,,,,7h[8:1]/3h[4:1],,,,,,36,,6h[4:1]/3h[4:1],,
{16},,,,,,E7/B7/B6/Ch[8:4],,,,,,8-5[2:4],,1-4b[8:15],,
