&title=Aragami
&artist=xi
&first=0
&des=猫猫猫车车车
&lv_7=定
&inote_7=(49)
{16},,,,,,,,,
{128}E6,,,,,,,,E5,,,,,,,,E4,,,,,,,8x,1xs5[8:1],,,,,,,,2,,,,,,,,3,,,,,,,,4,,,,,,,,5,,,,,,,,,,,,,,,,,,,,,,,,,,,,,,,1x,8xz4[8:1],,,,,,,,7,,,,,,,,6,,,,,,,,5,,,,,,,,4,,,,,,,,,,,,,,,,,,,,,,,,,,,,,,,,
{16}3h[8:1],,4h[8:1],,5h[8:1],,6h[8:1],,
(44)
{8}7h[8:1],
(39)
{8}8h[8:1],
(34)
{8}1h[8:1],
(29)
{8}2h[8:1],
(26.5)
{8},
(24)
{16},C,
(196)
{16}3/6,5,4,3,6,5,3,4,5,6,3,4,6,5,4,5,4,3,5,6,4,5,3,4,3/6,4,5,6,3,4,6,5,4,3,6,5,
{24}3,4,3,4,3,4,
{16}3,4,5,6,3,4,5,6,3/4,5,6,4,5,3,6,4,3,5,4,6,3,5,6,4,5,3,6,4,3,5,4,6,4/5,3,6,4,5,3,6,4,
{32}6,5,4,3,6,5,4,3,
{24}5,6,7,8,1,2,3/6,7,8,1,2,3,
{4}4w8[1:1]/5w1[1:1],,,,,,,
(65.33333333333333)
{24}2-4[24:1],2,1-5[24:1],1,8-6[24:1],8,2,,1,,8,,1-3[24:1],8,7-5[24:1],1,8-4[24:1],7,1,,7,,8,,5s1[12:1],,5,1s5[12:1],,1,B2/E3,,,B6/E7,,,
{72},,,2/7,,,3,4,3,4,,,
{48}2/7,,6,5,6,,
{72}4,5,3,4,,,5,4,6,5,,,2/7,,,
{24}7-5[24:1],7,8-4[24:1],8,1-3[24:1],1,7,,8,,1,,8-6[24:1],1,2-4[24:1],8,1-5[24:1],2,8,,2,,1,,
{48}3,,3,,5,,4,,7h[24:1],,8,8,6,,6,,4,,5,,2h[24:1],,1,1,
(196)
{32}2/8b,,,,2/8b,,,,1,2,3,4,7b,,,,1,2,3,4,6b,,,,
{24}1bw5b[8:1],2/8,3/7,4/6,,,1b,,,,,,7/3,,,,,,
{8}1/5,2-7[8:1]/6-3[8:1],,2/6,,4/8,2h[2:1]/6,,
{48}A5,D5,A4,D4,A3,D3,,D2,A1,D1,A8,D8,A7,,,,,,,,,,,,
{8}8/4,7-2[8:1]/3-6[8:1],,7/3,,5/1,7h[2:1]/3,,
{48}A4,D5,A5,D6,A6,D7,,D8,A8,D1,A1,D2,A2,,,,,,,,,,,,
{16}3/7,,1>4[8:1]/5,,,,1<6[8:1]/8,,,,1/2,,2-4[8:1],,5,5,2V84[16:3],,7,7,2,,,,3x/6,,6,5,7,,3,4,2,,2/7,,
{32}1,,8,,1,,8,,1-5[8:1],2,3,4,8,7,6,5,1,,,,,,,,
{16}7,4,7,4,6,5,6,5,7,6,5,4,5/6,3,5/6,3,5/6,4,5/6,4,3/6,,,,2,5,2,5,3,4,3,4,2,3,4,5,3/4,,6,5,4,5,4,3,4/5,,3/6,,
{8}8x/1x,2,7,8x/1x,2,7,1x/8,3,1/8x,6,1x/8,2/7,3/6,4-8[8:1]/5-1[8:1],,4/5,,2/7,
{24}2/7,3,4,5,6,7,1/8,2,3,4,5,6,2/7,,,,,,
{8}2,8<5[8:1],,8,1,2,3q5[8:3]/4,,3,,,,7,1>4[8:1],,1,8,7,6p4[8:3]/5,,6,,
{16}4,3,2,1,8s4[4:1]*s4b[4:1],,,,,,,,,,,,1s5[4:1]*s5b[4:1],,,,,,,,,,,,2s6[4:1]/6s2b[4:1],,2/6,,,,,,,,,,3s7[4:1]/7s3b[4:1],,3/7,,,,,,,,,,
{8}E1,,,E8,,,E7,,,E6,,,E5,,,E4,,,E3,,,E2,,,
{64}A1f,E1f,B8f,B7f,Cf,B3f,B4f,E5f,A5f,,,,,,,,,,,,,,,,,,,,,,,,
{16},,,,2/3,4,5,4,3,2,5,4,3,2,3,4,2,3,5,4,5,2,3,4,2,3,4,5,3/4,6,5,4,3,4,5,3,4,5,6,5,3,4,5,3,6,5,4,6,3,5,4,6,4-1[8:1]/5-8[8:1],,,,E1/E5/C,,,,7,6,5,4,7,6,4,5,4,7,6,5,7,6,5,4,6/5,3,4,5,6,5,4,6,5,4,3,4,6,5,4,6,3,4,5,3,6,4,5,3,
{8}7-3[8:1],7,8-4[8:1],8,1-5[8:1],1,2-6[8:1],2,1,1,1b/8b,,
{8}2-6[8:1],2,1-5[8:1],1,8-4[8:1],8,7-3[8:1],7,8,8,8b/1b,,
{16}3,4,3,4,3,,6,5,6,5,6,,2/3,4,2/3,4,2/3,,7/6,5,7/6,5,7/6,,6,5,4,3,6,5,4,3,
{12}6h,5h,4h,
{16}3/6,5,4,6,3,4,5,3,6,5,4,3,
(98)
{4}8s4s8[4:1]*<7<6>5>4>3>2<1<8b[4:1],A8f,,
(196)
{16}3/6,5,4,3,6,5,3,4,5,6,3,4,6,4,6,3,5,4,3,5,3,6,4,5,3,6,5,3,4,3,6,3,4,6,5,6,
{24}3,5,3,5,3,5,
{16}3,4,5,6,3,4,5,6,4,5,6,4,5,3,5,4,3,5,4,6,4,5,6,4,5,3,5,4,3,5,4,6,4/5,3,6,4,5,3,6,4,
{32}5,6,4,3,5,6,4,3,
{24}5,6,7,8,1,2,3/6,7,8,1,2,3,4/5,,,,,,
{16}2,3,4,5,3,4,2,3,5,4,5,2,3,4,5,2,3,4,2,3,2,5,2,3,7,6,5,7,6,5,7,6,4,5,6,4,7,6,5,7,4,5,4,5,7,6,5,4,
{24}7,8,1,2,3,4,5,6,7,2,1,8,7,6,5,4,3,2,7,8,1,2,3,4,5,6,7,2,1,8,7,6,5,4,3,2,
{16}6,5,6,5,6,5,7,4,7,4,7,4,
{32}8,7,3,4,8,7,3,4,8,7,3,4,1,8,2,3,1,8,2,3,1,8,2,3,
{16}8bx,,8<5b[8:1],,,,3/8,,3>8b[8:1],,,,8x,7,6,5,7x,6,5,4,6x,5,4,3,
{16}1b,,1>4b[8:1],,,,6/1,,6<1b[8:1],,,,1x,2,3,4,2x,3,4,5,3x,4,5,6,
{16}8b,,8-6>5b[8:1],,,,3/8,,3-1<8b[8:1],,,,8x,7,6,5,7x,6,5,4,6x,5,4,3,
{16}1b,,1-3<4b[8:1],,,,6/1,,6,,,,
{32}7,6,5,4,3,2,1,8,7-3[8:1],6,5,4,3,2,1,8,7/Cf,,,,,,,,
{16}4/7,5,6,5,6,7,4,5,6,5,6,7,3,6,5,4,5,6,3,4,5,4,3,6,2,3,4,5,2,5,2,3,4,5,2,5,6,4,3,6,5,4,3,6,5,4,3,6,3/4,6,5,3,6,3,4,5,6,3,5,4,
{24}6,3,6,3,6,3,
{16}6,5,4,3,6,5,4,3,6,5,6,5,4,5,4,5,
{32}3,4,6,5,3,4,6,5,1,2,8,7,1,2,8,7,2,3,7,6,2,3,7,6,3,4,6,5,3,4,6,5,
{4}4x>5[4:11],,,D3,,,D1,,,D7,,,
{48},,,,,,E5f,B4/B5,B3/B6,C,B2/B7,B1/B8,E1,
