&title=bloomin' feeling
&artist=中原龍太郎
&first=0.04
&des=老乡鸡
&lv_5=13
&inote_5=(181)
{8},,6,,3,,5,4,5,4,5,,4,,5,4,5,4,5,,6,,7,,,,7h[4:3],,5,,5,,5,,,6-2[8:1],,2-6[8:1],,,,,8,,8,,1,8,1,8,8<5[8:1],,8>3[8:1],,8b,,,,1,,2,,3,,4,,3,4,5,6,7,,,,12,,78,,1,8,1,8,1,1,8,,1h[4:1],,,,56,,34,,3,3,6,6,5,4,5,4,5h[4:1],,,,18,,18,,12,,2,1,1>4[8:1],1,1<6[8:1],,,,,,5-1[8:1],,4>1[8:1],,4,,,6,3,7,2,8,1b,,,,7h[8:1]/8h[8:1],,7h[8:1]/8h[8:1],,6,5,4,3,3-7[8:1],,2<7[8:1],,2,,,,1h[8:1]/2h[8:1],,1h[8:1]/2h[8:1],,3,3,4,4,5,6,5,6,5b,,,,7h[8:1]/8h[8:1],,7h[8:1]/8h[8:1],,6,6,5,5,3-7[8:1],,2<7[8:1],,2,,,,1h[8:1]/2h[8:1],,1h[8:1]/2h[8:1],,34,34,45,45,5,6,7,8b,1b,,,,1,8,1,8,1,7,2,7,2,3,6,3,6,4,5,4,5,4,6,4,6,3,4,3,4,3,5,3,5,4,6,4,6,7,8,7,8,1,8,1,8,2,8,2,8,1,2,1,2,8,7,2,7,6,3,6,3,4,2,4,2,,1b,8b,1,2,1,2,7,8,7,8,6,5,6,5,3,4,3,4,5,4,5,4,8,4,8,4,1,5,1,5,2,6,2,6,7,3,7,3,8,4,8,4,3,7,3,7,2,6,2,6,5,1,5,1,8,1,8,1,8,18,27,36,45,,,,1<6[8:2],,2,3,4,,4-1[8:1],,4-7[8:1],,4-8[8:1],,4,,,,8<5[8:1],,8,,1,2,3,4,5<8[8:2],,4,3,2,,,,4>1[4:1],,4,,5,6,7,8,8-5[8:1],,8-3[8:1],,8,,,,1>4[8:1]/8<5[8:1],,18,,,5,4,5,4,5,4,5b,4b,,,,1,5,1,5,4,8,4,8,7,3,7,3,2,6,2,6,5,1,5,1,2,6,2,6,3,7,3,7,4,8,4,8,1,8,1,8,2,7,2,7,3,6,3,6,4,5,4,5,4,5,
{16}4b,5,4,5,4,5,4,5,4,5,,,
{8}6,7,8,1,2,,,,5,,5h[4:2],4,3,2,4-1[8:1],,4-7[8:1],,4-8[8:1],,4,,,,3>8[8:2],,8<5[8:2],,5>2[8:2],,,,8,7,6,5,4,,,,4,,4h[8:3],5,6,7,5-8[8:1],,5-2[8:1],,5-1[8:1],,5,,,,6<1[8:2],,1>4[8:2],,4<7[8:2],,,,1,2,3,4,5,,,,3<6[8:2],,3,,8,1,2,3,4,,6h[8:1]/5h[8:1],,6h[8:1]/5h[8:1],,6h[8:1]/5h[8:1],,2<7[8:2],,2,,5,4,3,2,1,,7h[8:1]/8h[8:1],,7h[8:1]/8h[8:1],,,,8-4[8:1]/1-5[8:1],,18,,36,36,27,27,1,8,8<5[8:1],,8>3[8:1],,8,,7h[8:1]/8h[8:1],,7h[8:1]/8h[8:1],,84,15,26,37,48,51,48,37,26,15,8-5[4:6]/4-1[4:6],E
