&title=DJ Joseon
&artist=CLTH
&first=0.02
&des=DJ 몽실몽실냥냥이
&lv_5=13+
&inote_1=
&inote_5=(124)
{32},,,,,,,,,,,,,,,,,,,,,,,,,,,,,8,7,6,
{8}4qq5[2:1]/5,4/5,,,7,,,,
{16}6,5,,,5,4,,,4,3,,,{32},,,,,1,2,3,
{8}4qq6[2:1]/5,4/5,,,7,,,,
{16}6,5,,,5,4,,,4,3,,,8x,,,,
{16}5/4,,6,5x,7,5x,6,4x,4x-6[12:1]*-2[12:1],,,,,,,,
{16}4/5,,3,4x,2,4x,3,5x-7[12:1],5x-3[12:1],,,,,,,,
{16}5/4,,6,6,7x/5x,,3,3,4x/2x,,7,7,8x/6x,,2,2,
{16}1x^6[8:1]/3x,,,,1^4[8:1],,,,1-5[8:1],,,,Cf,,,,
{16}2/4,,3,,4/5,,6,5,6-4[12:1],5,,,3,,,,
{16}2/4,,3,,4/6,,7,5,7v8[8:1]*v4[8:1],5,,,,,,,
{16}7/5,,6,,5/4,,3,4,3-5[12:1],4,,,6,,,,
{16}7/5,,6,,5/3,,2,4,2qq2[64:11],4,,,,,,,
{16}4,3,5,4,6h[8:1],,5,5,7-5[12:1],4,8,5,7,,1,,
{16}4,3,5,4,6h[8:1],,5,5,7p6[32:6],4,6,5,,,,,
{16}5,6,4,5,3h[8:1],,4,4,2-4[12:1],5,1,4,2,,8,,
{16}5,6,4,5,3,,6<1[16:3],2-5[8:1],,,,,Cf,,,,
{16}2/6,,4/8,,2-4[12:1],4,1-5[12:1],5,2x,,1x,,4,,3b/5b,,
{16}1h[8:1],,8,2,8-6[12:1],3,8-4[8:1],4,8x,,8x,,5,,3b/7b,,
{16}8/1,,2/6,,7-5[12:1],5,8-4[12:1],4,7x,,8x,,6,,5b/7b,,
{16}3,,2,1,3,7,8,6,4-8b[8:1],,4h[4:1],,,,,,
{16}2/6,,1/8,,2-5[12:1],5,1-6[12:1],6,2x,,1x,,5,,3b/7b,,
{16}4h[8:1],,5,3,5-7[12:1],2,5-1[8:1],1,5x,,5x,,8,,2b/6b,,
{16}1/8,,2/6,,7-4[12:1],4,8-3[12:1],3,7x,,8x,,4,,6b/2b,,
{16}5h[8:1],,2,4,3,7,5,6,1>5[4:1],8,2,,7b,,,,
{8}6h[4:1],,4V28[4:1],,E7/B6,,,7h[4:1],
{8},3,3pp6[8:3],,E1/B8,,,,
{8}8h[4:1],,6<3[4:1],,E5/B5,,,5h[4:1],
{8},4,4-8b[8:1],,4qq2[8:1]*pp6[8:1],,,,
{8}3hx[4:1],,5-8[8:1],1-4[8:1],5,,,6h[4:1],
{8},3,3^8[8:1],7v4[8:1],3,,,2,
{8}2h[4:1],,8^5[8:1],4^1[8:1],8,,,6h[4:1],
{16},,8,,1/5,,2x/4x,,3,3x,5-1[12:1],4,6,,5b/7b,,
{16}8,,2/6,,4,5,3,3,6,5,7,7,2,4,3,3,
{16}6,5,7,4,5,3,4,2,8-5[12:1],,7,1,8b,,3b,,
{16}4/5,,2/6,,3,4,2,2,7,5,6,6,4,5,4,5,
{16}3,4,2,5,4,6,5,7,1^4[12:1],,2,8,1b,,6b,,
{16}4/5,,3/7,,1,7,1,4,2,8,2,5,3,1,4,,
{16}3b/7b,,1/5,,7,8,6,4,8,1,6^3[12:1],,1/8,,6xb/3xb,,
{16}2,,1/7,,8,2,8,5,7,1,7,4,6,8,5,,
{16}3b/7b,,1/8,,2,1,3,8,4,5,3,6,4w8[12:1],,2/6,,
{8}4bqq6[2:1],,,,,,,,
{16}6,5,,,5,4,,,4,3,,,{32},,,,,1/8,2/7,3/6,
{8}4qq7[2:1]/5,4/5,,,8,,,,
{16}5,6,,,4,5,,,3,4,,,8x,,,,
{16}3/4,,1,5x,2,4x,1,5x,5x-8[8:1]*-2[8:1],,,,,,,,
{16}6/5,,8,4x,7,5x,8,4x-1[8:1],4x-7[8:1],,,,,,,,
{16}1/8,,2,2,3x/1x,,7,7,8x/6x,,3,3,4x/2x,,6,6,
{16}5x-3[12:1]*-2[12:1]/7x,,,,5-7[12:1]*-8[12:1],,,,5-1[12:1],,,,Cf,,,,
{16}2-5[8:1]/8,,4,,2-8[12:1]/6,,8,,2-5[8:1]/6,,4,,2-8[12:1]/6,,8b,,
{16}2-5[8:1]/6,,4,,2/8,,6,6,4-8-6[16:3],5,3,4,2,,,,
{16},,4/5,,1,1,1,1,1,1,1,1,1,1,3hx[4:1],,
{16},,5,,8,8,8,8,8,8,8,8,8,8,8b,,
{16}1/7,,2,4,3,,5/6,,4,5,4-8[12:1],5,4,,8b,,
{16}6,,7,5,6,,4/3,,6,5,6v3[12:1],5,6,,3x,,
{16}1,,2,4,3,,1/8,,6/5,,7-4[12:1],8,6,,4,,
{16}3,,5,4,6,,1,4,3,7,4,5,2,,,,
{16}E4,,,,E7,B6,B5,E5,E3,,,,E4,B4,E5,,
{16}E6,,,,E7,B6,E6,,E5,,,,E3,,,,
{16}E4,,,,E7,,,,E6,,E5,,B3,B6,B4,B5,
{4}E5,,3-8b[12:1]/4-7b[12:1],{48}E4,Cf,E8,,,,,,,,,,
{16}2x/6x,,4/8,,2bv5[12:1],5,1^6[12:1],6,2x,,1x,,3,,1b/5b,,
{16}2h[8:1],,1,3,1-6[12:1],4,1-4[12:1],5,1x,,1x,,5,,7b/3b,,
{16}6,,5/1,,7v4[12:1],4,8^3[12:1],3,7x,,8x,,6,,8b/4b,,
{16}7h[8:1],,2,5,1,8,4,7,2h[64:15],,6h[64:7],,{32}E3/E7,B7/B3,B8/B4,E1/E5,,,,,
{16}2x/6x,,4/8,,3b^6[12:1],4,1-5[12:1],8,3x,,1x,,4,,1b/7b,,
{16}3h[8:1],,4,2,4-7[12:1],1,4-1[12:1],8,4x,,4x,,8,,5b/3b,,
{16}2x/6x,,4/8,,6^3[12:1],5,8-4[12:1],1,6x,,8x,,5,,8b/2b,,
{16}6h[8:1],,3,4,1,6,5,8,2-5b[12:1],4,1-6b[12:1],,2b,,1b,,
{32}2,,,,3,4,3,,5,,5,,4,,5,,3,,4,,6,5,6,,4,,4,,5,,4,,
{16}6,5,7,7,1,1,8,1,7,7,5,6,3,3,4,4,
{32}1bh[8:1],,,,6,,6,,5,,5,,7,,4,,6,,6,,4,5,4,,6,,6,,5,,7,,
{32}2,,2,,8,,8,,1,,1,,7,,7,,2x,,,,3/1,,3/1,,8b/4b,,,,6/2,,,,
{32}1/7,,,,3,4,3,,6,,6,,5,,7,,7,,3,,4,,2,,2,,5,,3b,,,,
{32}7b/1b,,,,6,5,6,,3,,3,,4,,2,,2,,6,,5,,7,,7,,4,,5,,,,
{32}1/7,,,,2/4,,2/4,,3,,3,,5,4,5,,2x/6x,,,,7/5,,7/5,,6,,6,,4,5,4,,
{32}3x/7x,,,,2/8,,2/8,,3,,4,,5,,6,,3,,4,,5,,6,,3x,4,5,6,3x,4,5,6>4qq4b[4:3],
{1}E4/B3/B2f,
