&title=ウィマーマ・サーガ
&artist=しぐれうい
&first=0.113
&lv_5=14
&des_5=伊拉莎玛
&inote_5=
(150){4},,,,,,A7/E8/B8/B1/E2/A2/A8/A1/B2/C/B6/B7/B5/E6/B4/E4,
E6/E7/E8/E1/E2/E3/B5/C/E4,
{8}2/5,{16}4,3,{8},2/5,1,8,{4}7/4,
{8}3/6,{16}4,5,{8}2/7,2-5[8:1]/7-4[8:1],,2/7,{4},{8}7/4,
{16}5,6,{8},7/4,8,1,{4}2/5,
{8}6/3,{16}4,5,{8}8<5[8:1]/1>4[8:1],2/7,{4}1/8,B7/A7/C/B8/A8/B1/A1/B2/A2,
5/4,5/3,3/5,5/2,
5/2-7[12:1],5,5/1-4[12:1],5,
4/6,6/4,7/4,7/4,
4h[4:3]/8h[4:3],{2},{4}A2/B2/B6/A6/Cf,
5/1-5[8:1],7,4/8-4[8:1],2,
6/3-8[8:1],7,3/6-1[8:1],2,
8<5[4:1],5>2[4:1],2<7[4:1],7<2[12:5],
{8}4,3,2,1,{2}8w4b[16:1],
{4}7>6[8:3],2h[4:1],,{16}2,7,3,6,
{4}4h[4:3],{2},{16}5,6,7,8,
{4}1h[4:1],3h[4:1],7h[4:1],5h[4:1],
{16}4,3,2,1,8,7,6,5,{4}4/3,{16}2b,2b,{8},1/5,
1/5,{12}1,2,3,8/4,7,6,5/2,{24},{8}3/7,
8/4,8/4,{12}7/3,6/2,5/1,{8}8/4-8[8:1],8/4,{4}4/8,
{8}1,1,{12}2/7,3/6,5/4h[24:5],{8},5h[8:1],4,7/2,
1/8,{16}6,5,{8}7,{16}2,8,1w5[12:1],3/7,{2},{8}1x/6x,
{4}6x/1x,{8}2h[8:1],5h[8:1],3h[8:1],6h[8:1],
4h[8:1],7h[8:1],1h[8:1],6h[8:1],4h[8:3],8x,8x,8x,
,3-1v8-6[2:1],3,6,5,4,3,2,
1x-4[8:1]/5x-8[8:1],1x/5x,{4}1x/5x,{8},8/4,{4}8-5[8:1]/4-1[8:1],
8/4,5/1,{8}5-8[8:1]/1-4[8:1],5/1,{4},8/4,
{8}6/2,2/6,3b>8[8:1]/7b<4[8:1],1b/5b,{4}3b/7b,
{8}1,2/8,7,6/1,{16}8,1,2,3,{4}5/4h[4:1],
{8}8,8,2/6,{32}8,1,2,3h[32:13],{8},{32}1,8,7,6h[32:5],{4},{8}1x-5[8:1],
1,8x<5[8:1],8,{16}4x,3,2,1,{8}8x/4x,8/4,
{16}1/5x,2/6x,3/7x,8x/4,1x,2,3x,4,5x/1,6x/2,7x/3,8x/4,{4}5b/1b,
{8}4/5,6/3,7/2,1/8,{16}1h,2h,{8}3h,{16}7h,6h,{8}5h,
{16}1h[8:3],{8},{16}2,{8},8h[8:3],{16},7,,1,{4}1,
{2}2>5[4:3],5,
8<5[4:3],5,
3>8[4:3],8,
{4}5<8[2:1],{8}3,2,{4}1-5[8:1],1b/Cf,
5x/4h[4:1],2h[4:1],6h[4:1],8h[8:1],
8x/4h[4:1],6h[4:1],2h[4:1],8h[8:1],
{8}4,4,5/3,5/3,6/2,6/2,7/1,7/1,
{24}8b,1,2,3,4,5,{32}6/1,8,7,6,5,4,3,2,1,8,7,6,5,4,3,2,{4}1-5[8:1]/8-4[8:1],
{16}1b/8b,{8},{16}3/6,{8},2,3/1,7,{4}8/6,
2/7,{8}1-4[8:1],1,5-8[8:1],5,4,3,
{16}1h[8:1]/2h[8:1],{8},{16}3h[8:1]/8h[8:1],{8},4h[16:1]/7h[16:1],5/6,7,3/4,2,
{4}8>3[8:1]*<5[8:1],8b,8w4[8:1],8b,
{8}4/3,3,4/2,2,{4}4/1>4[8:1],1/4,
{8}5/7,{16}6,4,{8}7/3,1/5,,4/5,7/3,2/6,
{24}1/5,2,3,4,5,6,7,8,1,2,3,4,5/1,6,7,8,1,2,3,4,5,6,7,8,
1/5,2,3,4,5,6,7,8,1,2,3,4,{2}1/5w1[12:1],
{16}1b-4[12:1]/8b-5[12:1],{8},{16}1/8,{8},7,8/6,2,{4}3/1-5[12:1],
{8},2/6-1[8:1],5,6/4-8[8:1],3,4/7,,5/1,
{16}8h[8:1]/7h[8:1],{8},{16}1h[8:1]/6h[8:1],{8},2h[16:1]/5h[16:1],3/4,4-1[8:1],,4/5,
{4}8<5[8:1],8>3[8:1],8w4[8:1],8b,
{16}1b-6[12:1]/2b-5[12:1],{8},{16}2/1,{8},4/7,2/8>3[8:1],7,{4}8/6,
{8},8-4[8:1],8,1,2-6[8:1],2,,7,
{16}1h[8:1]/8h[8:1],{8},{16}2h[8:1]/7h[8:1],{8},3h[16:1]/6h[16:1],5/4-1[8:1],5/4,,7,
8x/1x-5[8:1],1x/8x-4[8:1],1x,8x,{16}3,2,1,8,4,5,6,7,
{8}4b/8b-6[8:1],4,4,4,4/1-5[8:1],4,4,4,
4/2-6[8:1],4,4,4,4/3-7[8:1],4,4,4,
4b/8,3,2/6,1,8/4,7,6/2,5,
{16}4b/8,3,2,1,8b/4,7,6,5,4b/8,3,2,1,8b/4,7,6,5,
{32}4b,3b,2b,1b,8b,7b,6b,5b,{4}4b,{2}2-6[4:5],
{1},7-3[2:3],
,{4}4bh[6:1]/5b<4[2:3],
3h[6:1],2h[6:1],1h[6:1],
8h[6:1],7h[6:1],6h[6:1],5h[6:1],
5h[6:1]/4>1[2:1],6h[6:1],7h[6:1],8,
{8}1/8,{16}7,5,{8}6,6,1w5[8:1],1,{4},{16}3b/8bh[16:3],
{8},{16}3,2/7h[16:3],{8},{16}2,1/6h[16:3],{8},{16}1,2/5h[16:3],{8},{16}2,
3/6h[16:3],{8},{16}3,{12}4/5h[16:3],,4,3,6,3,2/5h[6:1],{48},,,,,{16}2,
{4}1h[16:3]/4h[16:3],{16}5/2h[16:3],{8},{16}5,6/3h[16:3],{8},{16}6,7/4h[16:3],{8},{16}7,
{6}8/5h[16:3],{12}8,7,5,6,2,1,3,8,4,7,
{16}6b/5bh[16:3],{8},{16}7,8/4h[16:3],{8},{16}8,7/3h[16:3],{8},{16}7,6/2h[16:3],{8},{16}6,
5/1h[16:3],{8},{16}5,4/8h[16:3],{8},{16}4,{4}3b-6[8:1]/7b-2[8:1],3b/7b,
{12}2b,4,3,7,5,6,3b,4,2,6,5,7,
{24}1,8,1,8,1,8,1,8,1,8,1,8,1,8,1,8,1,8,1-4[4:9],8,1,8,1,8,
{1}1b,
{4},,,,,8b,
{2},{1}4qq4[4:5]*pp4[4:5],
,{16}1,
2,3,4,5,6,7,8,1,2,3,4,{4}5/7,
{16}A8,E1,E2,A2,B7,C,B3,A3,A6,E6,E5,A4,A1,E2,E3,A3,
A8,B8,C,B4,A7,E7,E6,A5,A8,E1,E2,A2,B7,C,B3,A3,
A6,E6,E5,A4,A1,E2,E3,A3,A8,B8,C,B4,A7,E7,E6,A5,
A8,E1,E2,A2,B7,C,B3,A3,A6,A5,A4,A3,A2,A1,A8,A7,
A3,E4,E5,A5,B2,C,B6,A6,A1,E1,E8,A7,A2,E3,E4,A4,
A1,B1,C,B5,A8,E8,E7,A6,A3,E4,E5,A5,B2,C,B6,A6,
A1,E1,E8,A7,A2,E3,E4,A4,A1,B1,C,B5,A8,E8,E7,A6,
A3,E4,E5,A5,B2,C,B6,A6,A1,A8,A7,A6,A5,A4,A3,A2,
{2}1x/5xs1[16:3],{32}A1,B1,C,B5,{8}A5,{4},{1}Cf/B7/B3/A7/A3,
6/3-1v8-6[2:1],
A2/B2/B6/A6/Cf,
8b-5[4:1]*-4-1[2:1],
Cf/E4/B3/B2/E2/E8/B6/E6/B7,
8-2[2:1]/1-5[2:1],
Cf/E4/B3/B2/E2/E8/B6/E6/B7,
{4}4b/3b,2/4,1/4,8/4,
4/1-5[8:1],4,4/6-2[8:1],4,
5/6,5/7,5/8,5/1,
5/8-4[8:1],5,5/6<1[8:1],5,
{8}2b/4b,4,3/5,5,3/1,3,7/5,7,
4b/6b,4,3/8,8,2/5,2,6/4,6,
{16}5b,6,5,6,5,6,5,6,4b,7,4,7,4,7,4,7,
{32}3b,2,1,8,7,6,5,4,3,2,1,8,7,6,5,4,3/8b,1,2,3,4,5,6,7,8,1,2,3,4,5,6,7,
{1}8h[16:31]/1h[16:31],
,2h[16:15]/7h[16:15],
{16}A1,A2,A3,A4,A8,A7,A6,A5,{8},{16}1,8,{4}2b-5[8:1]/7b-4[8:1],
{6}2/7,1/8,{24},{8}5/6,8/4,3/4,{4}1/5-8[8:1],
{8},2-5[8:1],{4}2,{8}8-3[8:1],7,6,5-8[8:1],
{16}4,{8},{16}3,{8},2,1<1[2:1],7<5[8:1],5>3[8:1],3>1[8:1],
{4}8-4[8:1],8b/Cf,5w1[8:1],5,
{8}1/8<6[8:1],{16}1,2,{8}3/8-4[8:1],3,{4}3/8,1/5,
{8}8/1-3[8:1],{16}8,7,{8}6/1-5[8:1],6,6/1,7,4/8,8,
{24}8/4,7,6,5,4,3,2,1,8,7,6,5,4/8,3,2,1,8,7,6,5,4,3,2,1,
8/4,7,6,5,4,3,2,1,8,7,6,5,{2}8/4w8[12:1],
{6}1b-4[12:1]/8b-5[12:1],1/8,{24},{8}3,2/4,6,{4}7/5-1[8:1],
{8},7,6-2[8:1],6,3v8[8:1],3,,1,
{16}2h[8:1]/7h[8:1],{8},{16}3h[8:1]/6h[8:1],{8},4-8[8:1]/5-1[8:1],4/5,4/5,,2/7,
{4}3/6-3[8:1],6/1>8[4:1],1/4,Cf/B4/B5,
{16}8x/1x-5[12:1],{8},{16}1x/7x-3[12:1],{8},7x/3x,4-1[8:1],4,7-2[8:1],7,
,3,4,5-1[8:1],6,7,,8,
{16}1x/8x-4[12:1],{8},{16}8x/2x-6[12:1],{8},2x/6x,7,7<4[8:1],,3,
{4}3>8[32:3],{32}7x,6x,5x,4x,7x,6x,5x,4x,{2}3xh[8:3]/7xh[8:3],
{1}6pp4[2:1]/3qq5[2:1],
{4}4/8-4[8:1],2,5/1-5[8:1],7,
4/8-4[8:1],1>2>4[4:1],4<7[4:1],7>2[4:1],
2>5[4:1],{16}5,6,7,8,1,2,3,4,5/1,6/2,7/3,8/4,
1b/5b,{8},{16}3/7,{8},6/2,1-5[8:1]/8-4[8:1],3/6,{4}1/8,
{8},1/8,8/1,3/6,4/5,7/2,,5/6,
{16}3/7,{8},{16}2/6,{8},1/5,{32}2x-5[8:1]/6x-1[8:1],3x,4x,5x,6x,7x,8x,1x,{4}6/2x,
8>3[8:1]*<5[8:1],8b,8w4[8:1],8b,
{2}Cf/B7/B6/B2/B3,{8}6h[8:1],5,{4}4/7,
3/4,2/5,{8}3h[8:1],4,{4}2/5,
7/8,6/1,{8}7h[8:1],8,{4}6/1,
1/2,3/8,{8}2h[8:1],1,{4}3/8,
4b/5b,3/6-3[8:1],4-1[8:1],5,
{8}3/8,2/1,,8/7,{4}6/1-4[8:1],8,
{8}2/6,8,{4}8-4[8:1],8/1,5/1,
{8}8,7,6,5,{16}4,3,2,1,8,7,6,5,
4/1-5[8:1],{8},{16}3,{8},2,1/5>2[8:1],8,{4}7,
{16}4/1-5[8:1],{8},{16}3,{8},2,1/5>2[8:1],8,{4}7,
{16}4/1-5[8:1],{8},{16}3,{8},2,1/5>2[8:1],8,{4}7,
{16}4/1-5[8:1],{8},{16}3,{8},2,1/5>2[8:1],8,{4}7,
{8}5/1-5[8:1],4,3,2,1/5>2[8:1],8,7,6,
5/1-5[8:1],4,3,2,1/5>2[8:1],8,7,6,
{16}5/1x-5[8:1],8,7,6,5,4,3,2,1/5x>2[8:1],8,7,6,5/1,8,7,6,
5/1x-5[8:1],8,7,6,5,4,3,2,1/5x>2[8:1],8,7,6,5/1,8,7,6,
{1}1/5,
{16},6,{8},{4}6,
E
