&title=舞舞神拳(大陆恐龙特供)
&artist=尘千
&first=0.15
&des=乐
&lv_5=14
&inote_5=(185){1},{1},
{8}3,,2,,1-5[8:1],,8b,,
{8}7-5[8:1],7,3-1[8:1],3,7-5[8:1],7,3-1[8:1],3,7-5[8:1],7,3-1[8:1],3,7,7,8/6,,
{8}7-1[8:1],7,3-5[8:1],3,7-1[8:1],7,3-5[8:1],3,7-1[8:1],7,3-5[8:1],3,6,6,7/3,,
{8}6-8[8:1],6,1-3[8:1],1,6-8[8:1],6,1-3[8:1],1,6-8[8:1],6,1-3[8:1],1,5,5,4/5,,
{8}5-7[8:1],5,4-2[8:1],4,5-7[8:1],5,4-2[8:1],4,5-7[8:1],5,4-2[8:1],4,5,5,6b/4b,,
{8}1/5,,3/7,2/6,,4>1[8:1]/8<5[8:1],,4/8,,2/6,3-8[8:1]/7-4[8:1],,3b/7b,,,,
{16}4/5,,4,5,4,,3/5,,8,,4/6,,1,,,,4/5,,5,4,5,,4/6,,1,,3/5,,8,,,,
{16}4/5,,4,5,4,,3/4,,2/3,,1/2,,1/8,,,,
{16}7/8,,7,8,7,,1/6,,7-3[8:1]/8-4[8:1],,1/6,,7/8,,,,
{16}2/1,,2,1,2,,8/3,,2-6[8:1]/1-5[8:1],,8/3,,2/1,,,,
{16}7,,3,4,3,,1/8,,5/6,,1/8,,3/4,,,,
{16}2,,6,5,6,,8/1,,4/3,,8/1,,6/5,,,,
{4}4>8[4:1],8<4[4:1],4>8[4:1],8<4[4:1],4qq4[2:1]/4pp4[2:1],,,,
{8}1h[4:1],,2h[4:1],,3h[8:1],4h[8:1],5h[8:1],6h[8:1],7h[8:1],,8h[4:1],,1h[4:1],,,,
{8}8,,7,,5/6,3/4,1/2,8/7,1/2,3/4,5/6,7/8,1h[8:1],2h[8:1],3h[8:1],4h,
{8}5-2[8:1],5,6-1[8:1],6,5-2[8:1],5,6b,,
{8}4-7[8:1],4,3-8[8:1],3,4-7[8:1],4,3b,,
{4}8<6[4:1],6p8[4:1],8p4[4:1],4p8[4:1],8p3[4:1],3>8[4:1],8,,
{4}1<6[4:1],6-2[4:1],2>5[4:1],5-1[4:1],1<6[4:1],6-2[4:1],2,,
{4}1/8,1/2,
{8}1-7[8:1],5h[1:0],1-3[8:1],5h[1:0],1-7[8:1],6h[1:0],
{8}1-3[8:1],4h[1:0],1-7[8:1],6h[1:0],1-3[8:1],4h[1:0],
{4}1>8[2:3]
,,,,,,,,
{8}3-8[8:1]/7,2,3/7-5[8:1],6,3-5[8:1]/7,2,3/7-4[8:1],6,
{8}7/1-6[8:1],2,1/8-4[8:1],7,8/2-6[8:1],1,2/3-7[8:1],4,
{8}3/5-2[8:1],6,5/1>4[8:1],8,1/8<5[8:1],1,8/1-5[8:1],8,
{8}1/8-4[8:1],1,8/2>5[8:1],2,2/6<8[8:1],6,6/1-4[8:1],2,
{8}1-6[8:1],8,1>4[8:1],2,1<6[8:1],8,1-4[8:1],2,
{8}1-6[8:1],8,1>4[8:1],2,1,8,
{8}1-3[8:1],8-4[8:1],1-5[8:1],8-6[8:1],1-3[8:1],8-4[8:1],
1-5[8:1],8-6[8:1],1>4[8:1],8<5[8:1],1-6[8:1],8-3[8:1],
1-4[8:1],8-5[8:1],1,8,1b,,
{12}3,4,3,6,5,6,3,4,2,6,5,7,3,4,2,6,5,7,
{8}1/8,5/6,1/8,3/4,
{12}7,8,6,2,1,3,7,6,8,2,3,1,7,8,6,3,4,2,
{8}8b/1b,4b/3b,8b/1b,6b/5b,
{12}1/2,3,4,5/3,4,5,6/4,5,6,7/5,6,7,8/6,7,8,
{8}1,3/4,1/8,5/6,1/8,4/5,1/8,
{12}8/7,6,5b,4/6,5,4b,3/5,4,3,2/4,3,2,1/3,2,1,
{8}8,6b/5b,8b/1b,4b/3b,8b/1b,
{8}7-2[8:1],7,3-6[8:1],3,7-2[8:1],7,3-6[8:1],3,7-2[8:1],7,3-6[8:1],3,7-2[8:1],7,3b,,
{8}8-5[8:1],8,4-1[8:1],4,8-5[8:1],8,4-1[8:1],4,8-5[8:1],8,4-1[8:1],4,8-5[8:1],8,4b,,
{8}7-1[8:1],7,2-6[8:1],2,5-3[8:1],5,2-6[8:1],2,7-1[8:1],7,2-6[8:1],2,5-3[8:1],5,2b,,
{8}2-8[8:1],2,7-3[8:1],7,4-6[8:1],4,7-3[8:1],7,2-8[8:1],2,7-3[8:1],7,4-6[8:1],4,7b,,
{4}4/5<4[3:4],,,,,,,
{12},,4/5,,5/4>5[1:1],,
{4},,,,,
{12},1,,,1,,,
{8}5/6,7,5/6,4,5/6,7,5/6,4,
{8}5/6,8,3/4,1,5/6,8,3/4,1,
{8}4/3,2,4/3,5,4/3,2,4/3,5,
{8}4/6,7,4/6,3,3/5,6,3/5,2,
{4}5<1[4:1],1>5[4:1],5<1[4:1],1>5[4:1],5pp5[2:1]/5qq5[2:1],,,,
{8}8h[4:1],,7h[4:1],,6h[8:1],5h[8:1],4h[8:1],3h[8:1],2h[8:1],,1h[4:1],,8h[4:1],,,,
{8}1,,2,,3/7,1/5,3/7,1/5,2/6,8/4,2/6,8/4,8h[8:1],7h[8:1],6h[8:1],5h,
{8}5b,1b,3b,1b,4b,2b,1b,1b,4b,5b,1b,4b,2b,3b,3b,,
{4}1>3[4:1],3q1[4:1],1q5[4:1],5q1[4:1],1q6[4:1],6<1[4:1],
{4}1>3[4:1],3q8[4:1],8q5[4:1],5q1[4:1],1q6[4:1],6q2[4:1],2>4[4:1],4<8[4:1],,,
{4}8/1,8/7,
{8}8-2[8:1],4h[1:0],8-6[8:1],4h[1:0],8-2[8:1],3h[1:0],
{8}8-6[8:1],5h[1:0],8-2[8:1],4h[1:0],8-6[8:1],4h[1:0],
{4}8<1[2:3],,,,,,,,
{8}8/2-5[8:1],1,2/7-5[8:1],8,7/3-8[8:1],4,3/6-2[8:1],7,
{8}6/4>1[8:1],3,4/5<7[8:1],4,5/8-3[8:1],1,8/4-7[8:1],5,
{8}4/1>3[8:1],5,1-7[8:1],5h[1:0],1-4[8:1],6h[1:0],1-6[8:1],8-3[8:1],
{8}1h[1:0],8<6[8:1],4h[1:0],8-3[8:1],2h[1:0],8h[1:0],1h[1:0],8<5[8:1],
{8}3h[1:0],8/1-5[8:1],8,1/8-4[8:1],1,8/2-5[5:1],3,2/6<1[8:1],
{8}7,6/4-2[8:1],5,4/5-7[8:1],4,5/1-3[8:1],8,1/6<8[8:1],
{8}5,6/4>1[8:1],3,4/5-8[8:1],6,5/4,3,,
{16}4/5,,4,5,4,,3/6,,
{32}8,7,6,2,3,4,7,6,5,1,2,3,4,5,6,7,8,,,,
{8}3-8[8:1]/7,2,3/7-5[8:1],6,3-5[8:1]/7,2,3/7-4[8:1],6,
{8}7/1-6[8:1],2,1/8-4[8:1],7,8/2-6[8:1],1,2/3-7[8:1],4,
{8}3/5-2[8:1],6,5/1>4[8:1],8,1/8<5[8:1],1,8/1-5[8:1],8,
{8}1/8-4[8:1],1,8/2>5[8:1],2,2/6<8[8:1],6,6/1-4[8:1],2,
{8}1-6[8:1],8,1>4[8:1],2,1<6[8:1],8,1-4[8:1],2,
{8}1-6[8:1],8,1>4[8:1],2,1,8,,
{16}1,5,2,6,3,7,4,8,3,7,2,6,1,5,8,4,
{32}7b,,3,,7b,,3,,7b,,3,,7b,,3,,8/4,1/5,2/6,3/7,8,1,2,3,4/8-4[8:1],1/5,2/6,3/7,8,1,2,3,
{1}8bq2[1:2]/4bq6[1:2],
E
