&title=君が夢を連れてきた
&artist=ペットな彼女たち
&first=0.043
&des=さくら荘の変わった人たち
&lv_5=12+
&inote_5=(135)
{1},
{16}6,,,,6h[8:4],,,,,,4,,4,,,,
{16}3,,,,3h[8:4],,,,,,5,,5,,,,
{16}7,,,,7h[8:4],,,,,,5,,5<4[2:1]*>6[2:1],,,,
{16},,,,,,,,,,,,6<4[2:1]/4,,,,
{16}5b,,,,4>6[2:1],,,,5x,,,,6<4[2:1],,,,
{16}5x,,,,4>6[2:1],,,,5x,,,,6<4[2:1],,,,
{16}5x,,,,4-8b[16:3],,,,5x,,,,3-7[16:2],,,,
{16}3-1v4[16:5]/5-7v4[16:5],,,,,,,,,,,,3x>5[2:1]/5x,,,,
{16}4b,,,,5<3[2:1],,,,4,,,,3>5[2:1],,,,
{16}4,,,,5<3[2:1],,,,4,,,,3>5[2:1],,,,
{16}4,,,,5-1b[16:3],,,,4,,,,6-2[16:2],,,,
{16}3-7[8:1]/6,,,,3>8-4[16:5]/5pp4[16:5],,,,,,,,,,,,
{16}3x/4xh[2:1],,,,5x-1[16:3],,,,,,,,6,,,,
{16}6h[8:4]/4,,,,5>2[16:3],,5,,,,,,5,,,,
{16}3/4h[2:1],,,,5-1[16:3],,,,,,,,6,,,,
{16}7h[8:3]/3,,,,5,,5,,,,8x,,1x/8x,,,,
{16}43,,,,5>2[16:2]*<8[16:2],,,,,,,,1x,,,,
{16}4/6h[8:4],,,,7>2[16:3],,7,,,,,,5,,,,
{16}3/4h[2:1],,,,5-1[16:3],,,,,,,,6h[8:4],,,,
{16}4,,4,,5,,7,,8-4[8:1]/5-1[8:1],,,,,,,,
{16}3bx,,,,35,,,,6,,5,,64,,,,
{16}3h[8:3],,,,1,,1<6[8:1],,,,2,,2,,,,
{16}4,,,,25,,,,6,,5,,47,,,,
{16}2,,1,,8,,7h[4:1]/3,,,,6x,,6x/7x,,,,
{16}1b,,,,34,,,,8,,7,,65,,,,
{16}1h[8:3],,,,8,,8<5[8:1],,,,2,,2h[4:1],,,,
{16}3>6[8:3],,,,4,,4,,,,1x,,1xh[4:1],,,,
{16}3,,4,,5,,62,,,,78,,7/8,,,,
{16}26,,3,,4,,5h[4:1],,,,6,,47,,,,
{16}7,,6,,5,,4h[4:1],,,,3,,52,,,,
{16}37,,2,,1,,8h[4:1],,,,7,,26,,,,
{16}5-1[8:1]/3,,,,54,,,,6/5w1[8:1],,,,5,,,,
{16}6b/4b,,,,4>1[8:1],,5,,6,,,,7<4[8:1],,8,,
{16}1,,,,2<7[8:1],,3,,4h[4:1],,,,5x-1[8:1],,,,
{16}5<8[8:1],,,,5>2[8:1],,,,5-1[8:1],,,,5>6[2:1]*<4[2:1],,,,
{16},,,,,,,,,,,,3b/6b,,,,
{16}1-5[8:1]/8,,,,17,,8-4[8:1],,,,28,,1<6[8:1],,,,
{16}6,,5-1[8:1],,4,,4<7[8:1],,,,3,,3,,,,
{16}2V48[4:1]/8,,,,21,,7V51[4:1],,,,7x/8x,,2,,,,
{16}28,,7-4[8:1]/3-8[8:1],,,,73,,,,2b/6b,,,,8,,
{16}8bx-4[8:1]/1bx,,,,28,,1-5[8:1],,,,71,,8>3[8:1],,,,
{16}3,,4-8[8:1],,5,,5,,,,6,,64,,,,
{16}5/1h[4:1],,,,8,,7h[4:1]/4,,,,2,,3>8[8:1]/5<8[8:1],,,,
{16}35,,,,4/5w1[8:1],,,,5,,,,45,,,,
{16}3xV58[4:1]/6xV41[4:1],2x/7x,1x/8x,,E5f,,,,,,2x,,2<7[8:1],,,,
{16}6,,5-1[8:1],,4,,4-7[8:1],,,,3,,5x>2[8:1],,,,
{16}7-3[8:1]/5,,,,7/8,,1-5[8:1],,,,81,,7-3[8:1],,,,
{16}3,,4>8[24:4],,1<6[8:1],,7,,,,4,,4<8[24:4],,7>2[24:3],,
{16}1,,,,4,,4,,,,35,,3q5[2:1]/5<4[2:1],,,,
{16},,,,,,,,,,,,6x<4[2:1]/4x,,,,
{16}5b,,,,4-8<5[2:1],,,,5x,,,,5-1>4[2:1],,,,
{16}4x,,,,4-8<5[2:1],,,,5x,,,,5-1>4[2:1],,,,
{16}4x,,,,4-8b[16:3],,,,5x,,,,3-7[16:2],,,,
{16}3-1v4[16:5]/5-7v4[16:5],,,,,,,,,,,,3>5[2:1]/5,,,,
{16}4b,,,,5-1>4[2:1],,,,4,,,,4-8<5[2:1],,,,
{16}5,,,,5-1>4[2:1],,,,4,,,,4-8<5[2:1],,,,
{16}5,,,,5-1b[16:3],,,,4,,,,6-2[16:2],,,,
{1}6bpp5[8:5]/4bqq5[8:5],
E
