&title=Letter to the Black World
&artist=Frog96
&first=0
&des=Purritty
&lv_5=13+
&inote_5=(185)
{8}
,,,,,,,,
2/7,,2/7,,3,3,6,4,,4,5,,4/5,,4/5,,B1/B2/E2,,B8/B7/E8,,C,C,,
6h[4:6]/3,,3,,3,,3,,3,,3,,3,2,1,Ch[4:1],,
2>5[8:1],,2,,3,6,3,2-5[8:1],,2/6,7,8,4,3,2,,6-1[8:1]/2-5[8:1],,6/2,,8/4,4,3,2h[8:6],,1,8,7,6,5,4/Ch[4:1],,
7<4[8:1],,7,,6,3,6,7-4[8:1],,7/3,2,1,5,6,7,,3-8[8:1]/7-4[8:1],,7/3,,1/5,5,6,7h[4:3],,
{32}
B1,B2,,,,,B3,B4,,,,,B5,C,B1,,,,,,,,,,,,,,
{8}
Ch[4:3],,,,,,6,7,4,3-8[8:1],,3,5,1,5,1,2,3,4,,,4/6,,5h[4:1]/3h[4:1],,,2,1,8,7,6,,
Ch[4:1],,5,5,2,,3,3,8,,4/5,3,2,1,8,7,6,5,4,,,2/8,,1h[4:1]/7h[2:1],,,2,3,4,4,7,6,5h[4:2],,8,,4h[2:1],,1,,5<8[8:1],,5/4,,Ch[8:3],,,8,7,6,1,2,3,5,4,,,B2,B6,B4,B8,B3,B7,B1,Ch[4:1],,3-8[8:1],3,6-1[8:1],6,,2,2,3,4,,7,6,5,,2bx-7[8:1],,6bx>3[8:1]/2b,,1bx-4[8:1]/6b,,5bx-8[8:1]/1b,,3bx>8[8:1]/5b,,8bx-5[8:1]*-3[8:1]/3b,,8bx,,,,
4xh[4:3]/6,,6,6,5,,3,,3xh[4:3]/5,,5,5,4,,2,,2xh[4:3]/7,7,,8,8,,7,,1xh[4:3]/6,7,8,2,3,4,5,,
5xh[4:3]/3,,3,3,4,,6,,6xh[4:3]/4,,4,4,5,,7,,7xh[4:3]/2,2,,1,1,,2,,8xh[4:3]/2,2,2-4[8:1],,2-6[8:1],,2,,
1,1,2,2,3,3,4,,
8,8,7,7,6,6,5,,
2/7,,1/8,8/1-3[8:1]*-4[8:1],,1-7[8:1]*-6[8:1],,1,,4,3,2,1,,1>4[8:1]*<6[8:1],,1,,
5,6,3,2,,3/5,,3/5,2>5[8:1]/6<1[8:1],,2/6,,1v6[8:1]/5v2[8:1],,1/5,,,8-6[8:1]*-5[8:1],,8-2[8:1]*-3[8:1],,8,,5,6,7,8,8,4,3,2,Ch[8:1],3,3,4,,6/5,,
{6}
Ch[2:1]/B5,B6,B7,B8,B1,B2,
{8}
3,3,8,8,2,2,6,6,1h[4:3],3,4,5,6,7,8,,
8v3[8:1]/7v4[8:1],,8/7,,3,2,1,,
1v6[8:1]/2v5[8:1],,1/2,,6,7,8,,
7bx-2[8:1],,3bx<6[8:1]/7b,,3b/8bx-4[8:1],,,,
2,5,2-4[8:1],,2/5,,5/4,,7,4,7-5[8:1],,7/4,,5/4,,
5/4,3,5/2,6,7/2,,7/2,,8h[4:3]/1,2,3,4,5,6,7,,
7,4,7-5[8:1],,7/4,,5/4,,2,5,2-4[8:1],,2/5,,5/4,,
5/4,6,4/7,3,2/7,,
1>5[4:1],,5b<1[4:1],,1b>5[4:1],,5b,,,
Ch[8:1],3bx,3,Ch[8:1],2bx,2,Ch[4:1],,1bx,1,Ch[8:1],1bx,2,3,,3,Ch[8:1],2bx,2,1>4[8:1],Ch[8:1],1bx,,5,,Ch[4:1]/4bx,,3,,2,,1,Ch[4:1],,3bx,Ch[8:1],6bx,Ch[4:1],,3bx,2,Ch[8:1],,1bx,2,3,3,2b,Ch[4:1],,4bx,3,Ch[8:1],3bx,2,1,1,Ch[4:1],,B1,B2,B3,,,
Ch[4:1],,6bx,6,,Ch[8:1],7bx,7,Ch[4:1],,8bx,7,Ch[4:1],,7bx,6,6,Ch[4:1],,6bx,Ch[4:1],,3bx,Ch[4:1],,5bx,5,6,7,7,8,8,8,
Ch[8:1],6x,6,B6,Ch[8:1],3x,3,B3,Ch[4:1],,6x,7,3,2,8,1,1xh[4:3]/8xh[4:3],,,,,,,,
8b-4[8:1],,8b<5[8:1],,8b>3[8:1],,8bw4[8:1],,8b,,1/2,,5/4,,8/7,,5h[2:1]/4,,8,,4h[4:1],,1,,6/3,,6/8,,6/3,,3/1,,6/3,,3,4,5,6,Ch[4:1],,8<5[8:1],,8,,1,2,3,,4>1[8:1],,4,,8,7,6,,
1v4[8:1],,1,,5v8[8:1],,5,,3h[2:1],
{32}
B8,B7,,,,,B6,B5,,,,,B4,C,B8,,,,,,
{8}
Ch[4:1],,
3h[1:1],,6,6,5,,4,,6h[1:1],,3,3,4,,5,,
3h[1:1],,4,,2,,1,,6h[1:1],,5,,7,,8,,
3h[1:1],,5,5,4,,2,,6h[1:1],,4,4,5,,7,,
1,,2,,3,,4,,6h[4:3],
{32}
B1,B2,,,,,B3,B4,,,,,B5,C,B1,,,,,,
{8}
Ch[4:1],,
