&title=LIMBO
&artist=Mori†
&first=0.075
&des=泠殇_Eric
&lv_5=14+
&lv_7=15?
&inote_5=(192)
{8},,,,2h[4:1],3,4,5h[4:1],4,3,2h[4:1],5,6,7h[4:1],2,1,8>4[8:1],,78,,7h[4:1],6,5,4h[4:1],5,6,7h[4:1],4,3,2h[4:1],7,8,1<5[8:1],,21,,
2h[4:1],1,8,7h[4:1],8,1,2h[4:1],7,6,5h[4:1],2,3,4-8[8:1],,4/8-4[8:1],,7,6,5,4,3,2,6,5,4,3,2,1,8-4[8:1],,18,,2-5[8:1],1,2,7-4[8:1],8,7,2-5[8:1],1,2,7-4[8:1],8,7,1-5[8:1]*-6[8:1],,1,,7^4[8:1],8,7,2^5[8:1],1,2,7^4[8:1],8,7,2^5[8:1],1,2,6-8[8:1]*-2[8:1],,6,,1q5[8:1],7,1,8p4[8:1],2,8,1q5[8:1],7,1,8p4[8:1],2,8,1<6[8:1]*>4[8:1],,1,,5,6,6,4,3,3,6,7,7,3,2,2,
{32}18,2,3,4,5,6,7,8,61,5,4,3,2,1,8,7,
{8}6b/2bw6[8:5],,,,,,,,3b-8[16:1],,4b-7[16:1],,
{16}8,1,2,3,4b/8b,,,,6,5,6,5,6h[8:1],,3,4,3,4,3h[8:1],,6,5,6,5,6h[8:1],,3,4,3,4,3h[8:1],,6-4[12:1],,,,56,,,,
{16}3b,4,2,4,3h[8:1],,6,5,7,5,6h[8:1],,3,4,2,4,3h[8:1],,6,5,7,5,6h[8:1],,5b-1[8:1],,,,,,,,7b,8,6,8,7h[8:1],,2,1,3,1,2h[8:1],,7,8,6,8,7h[8:1],,2,1,3,1,2h[8:1],,7v2[8:1],,,,27,,,,
{16}3b,1,2,1,3,8,4h[16:1],,7b,5,6,5,7,4,8h[16:1],,3b/7,,,2/6b,,,1b/5,,8v6[8:1]/4bv2[8:1],,,,,,,,1,5,2,4,3h[8:1],,1,2,8,1,7h[8:1],,8,6,1,5,2h[8:1],,4,3,8,1,6,5,7b-3[8:1]*V13[8:1],,,,7b,,,,5,4,6,5,7h[8:1],,1,8,2,1,3h[8:1],,6,5,7,4,8h[8:1],,2,1,3,7,5,6,3bp7[8:1]*>7[8:1],,,,3b,,,,5,6,4,5,3h[8:1],,1,2,6,5,7h[8:1],,8,6,1,5,2h[8:1],,4,3,8,1,7,5,6b-2[8:1]*-2[8:1],,,,6b,,,,3b,1,4,8,5,7,4,8,3b,1,4,8,5,7,4,8,
{12}3b/1h[12:1],,2b/8h[12:1],,1b/7h[12:1],,
{16}8,1,2,3,
{32}7,6,5,4,3,2,1,8,
{16}3/7bp3[8:1],,,,3,2,1,8,7q3[8:1],,,,3,4,5,6,74,3,2,5,6,7,3,2,1,6,7,8,
{32}5,4,3,2,1,8,7,6,
{16}5/1b>5[8:1],,,,5,6,7,8,1<5[8:1],,,,5,4,3,2,14,5,6,4,3,2,5,6,7,3,2,1,
{32}5,6,7,8,1,2,3,4,
{16}1b-5[8:1]/5,,,,4,5,6,7,8-4[8:1],,,,5,4,3,2,16,7,8,2,3,4,7,8,1,3,4,5,
{32}8,1,2,3,4,5,6,7,
{16}8b/2b,,3,4,3,5,4,5,3b/7b,,6,5,6,4,5,4,
{12}6b/8h[12:1],,7b/1h[12:1],,8b/2h[12:1],,
{16}1,8,7,6,
{32}2,3,4,5,6,7,8,1,
{16}6/2b,,6,5,7-4[8:1],8,6,1,2h[8:1],,,3h[8:1],,,4h[8:1],,1,2,3,41,8,7,62,3,4,58,7,6,
{32}51,2,3,4,5,6,7,8,
{16}1/5b,,3,4,2-5[8:1],1,3,8,7h[8:1],,,6h[8:1],,,5h[8:1],,8,7,6,58,1,2,37,6,5,41,2,3,
{32}48,7,6,5,4,3,2,1,
{16}8h[4:1]/4b,,,,,,6,5,4h[4:1]/7h[4:1],,,,,,2,3,1h[4:1]/4h[4:1],,,,,,7,8,16,,2,1,38,,3,8,
{16}2b,1b,2b,1b,2b,1b,2b,1b,2b,1b,2b,1b,2b,,,,
{12}38,2,1,47,6,5,27,1,8,
{32}3,4,5,6,7,8,1,2,3b/4b,,,,3b/4b,,,,3b/4b,,,,3,2,1,8,7,,,,6b/5b,,,,6b/5b,,,,6b/5b,,,,
{24}6,7,8,1,2,3,
{16},,3b,4b,2b/5b,,,3b/8b,,,1b/6b,,
{32}7b/8b,,,,7b/8b,,,,7b/8b,,,,7,6,5,4,3,,,,2b/1b,,,,2b/1b,,,,2b/1b,,,,
{24}2,3,4,5,6,7,
{16},,7b,8b,1b/6b,,3b/4b,,1b/7b,,5b/6b,,
{32}2b/3b,,,,2b/3b,,,,2b/3b,,,,1,2,3,4,5,,,,7b/6b,,,,7b/6b,,,,7b/6b,,,,
{24}8,7,6,5,4,3,
{16},,2b,1b,3b/8b,,,4b/7b,,,5b/6b,,
{32}7b/8b,,,,7b/8b,,,,7b/8b,,,,8,1,6,5,4,,,,2b/1b,,,,2b/1b,,,,2b/1b,,,,
{24}1,8,7,3,4,5,
{16},,4b,5b,
{12}3b,4b,2b,6b,5b,7b,
{32}8b/3b,,,,8b/3b,,,,8b/3b,,,,2,1,8,7,6,,,,3b/5b,,,,3b/5b,,,,3b/5b,,,,
{24}6,7,8,1,2,3,
{16},,7b,8b,1b/6b,,,3b/4b,,,2b/5b,,1b/6b,,1b/6b,,1b/6b,,
{32}7,8,1,2,3,,,,6b/4b,,,,6b/4b,,,,6b/4b,,,,
{24}3,2,1,8,7,6,
{16},,3b,4b,5b/2b,,7b/8b,,3b/4b,,2b/6b,,
{32}7b/1b,,,,7b/1b,,,,7b/1b,,,,8,8,8,8,8,,,,5b/3b,,,,5b/3b,,,,5b/3b,,,,
{24}4,4,4,4,4,4,
{16},,2b,1b,8b/3b,,,6b/5b,,,3b/4b,,
{16}5b,2,6,1,7b,1,8,1,8b,1,8,1,8b,1,8,1,
{32}8b,7,6,5,4,3,2,1,8b,7,6,5,4,3,2,1,8b,7,6,5,4,3,2,1,8b,7,6,5,4,3,2,1,
{2}8bV63[2:3]/4V27[2:3],,,,8pp3[2:3]/4pp7[2:3],,,,2V48[2:3]/6V84[2:3],,,,
{8}1-4[2:1]/5-8[2:1],,,,,,,,1<5[2:1]/5>1[2:1],,,,,,,,4h[16:1],3h[16:1],5h[16:1],6h[16:1],4h[16:1],5h[16:1],3h[16:1],4h[16:1],2h[16:1],2h[16:1],3h[16:1],3h[16:1],4h[16:1],4h[16:1],5h[16:1],5h[16:1],3h[16:1],4h[16:1],3h[16:1],5h[16:1],4h[16:1],6h[16:1],4h[16:1],5h[16:1],7h[16:1],6h[16:1],5h[16:1],4h[16:1],6h[16:1],5h[16:1],4h[16:1],3h[16:1],
2h[16:1],1h[16:1],8h[16:1],7h[16:1],7h[16:1],8h[16:1],1h[16:1],2h[16:1],1h[16:1],8h[16:1],2h[16:1],7h[16:1],3h[16:1],6h[16:1],4h[16:1],5h[16:1],3h[16:1],1h[16:1],2h[16:1],8h[16:1],1h[16:1],7h[16:1],8h[16:1],6h[16:1],2h[16:1],1h[16:1],8h[16:1],7h[16:1],1h[16:1],8h[16:1],7h[16:1],6h[16:1],
5bw1[8:5]*s1[8:5],,,,,,,,
{16}3b/7b,,,,3b/7b,,,,3-6[8:1]/7-2[8:1],26,15,48,37,,,,8h[4:1]/1-5[8:1],,,,1,,7,6,4,3,2,1,7,6,5,4,
{32}1<6[8:1],2,3,,7,,,,1>4[8:1],,,,4,,,,1,,,,
{16}6h[8:1],5,,7,8,1,2b/7-3[8:1],,,,78,,1,2,4,5,6,7,1,2,3,4,
{32}8-3[8:1],7,6,,2,,,,8-5[8:1],,,,5,,,,8,,,,
{16}3h[8:1],,1,8,7,6,1b/5,,
3,4,2,4,1,4,8h[16:3],,,7h[16:3],,,6h[8:1],,5b,,6,5,7,5,8,5,1h[16:3],,,2h[16:3],,,3h[8:1],,4b,,5,,46,,3,,3b/5b,,6,,37,,2,,1b,2,3,4b,2,3,4b,5,
{32}3b,4,5,6,7,8,1,2,
{16}3b>8[8:1]/5bpp7[8:1],,,,35,,,,6h[8:1],,1,5,2,4,3,5,8,7,1,6,
{32}2-5[8:1],3,4,,8-4[8:1],,,,2,,,,8,,,,1-5[8:1],2,3,,7-3[8:1],,,,1,,,,7,,,,
{16}8b,,,,2h[8:1],,8,4,7,5,6,4,1,2,8,3,
{32}7-4[8:1],6,5,,1-5[8:1],,,,7,,,,1,,,,8-4[8:1],7,6,,2-6[8:1],,,,8,,,,2,,,,
{16}1b,,2,5,3,4,2,5,1h[8:1]/6h[8:1],,,2h[8:1]/7h[8:1],,,38,,3b/8b,,7,4,6,5,7,4,8h[8:1]/3h[8:1],,,7h[8:1]/2h[8:1],,,61,,5-8[8:1],,1-5[8:1],,5,,1,,7-3[8:1],,4-1[8:1],,7,,4,,8b,7,6,5b,7,6,5b,4,
{32}6b,5,4,3,2,1,8,7,
{16}4b/6b,,,,2h[8:1],,1,3,6h[8:1],,5,7,2h[8:1],,1,3,6h[8:1],,5,7,2>5[4:1],,,,5<8[4:1],,,,8>3[4:1],,,,3,,,,6h[8:1],,1,5,3h[8:1],,8,4,6h[8:1],,1,5,3h[8:1],,8,4,7<3[4:1],,,,3>7[4:1],,,,7<5[8:1],,,,3,,,,2h[8:1],,8,1,7h[8:1],,1,8,3h[8:1],,8,1,6h[8:1],,1,8,3v8[8:1],,,,34,,,,6v1[8:1],,,,56,,,,34,,3,,5,,2,,46,,7,,3,,8,,
{24}1/2b,3,4,5,6,7,8/6b,5,4,3,2,1,8/3b,4,5,6,7,8,1b/5h[4:1],,,,,,
{16}1,2,3,4,1,8,7,6,1,2,3,4,1,8,7,6,1,2,3,4,8,1,2,3,7,8,1,2,6,7,8,1,5b,4,3,2,5,6,7,8,5,4,3,2,5,6,7,8,5b,4,3,2,6,5,4,3,7,6,5,4,8,7,6,5,1bq6[8:1]/4h[4:1],,,,,,,,7bp2[8:1]/8h[4:1],,,,,,,,3bV15[4:1]/1,,,,5V73[4:1],,,,8b-4[8:1],,,,8,,,,3,4,2,4,3,4,1,4,3,5,3,1,3,6,3,8,
{12}2h`7,2h`7,2h`7,1h`6,1h`6,1h`6,2h`7,2h`7,2h`7,3h`8,3h`8,3h`8,1bs5[4:7]/4b-8[4:7],
&inote_7=(192)
{8},,,,2h[4:1],3,4,5h[4:1],4,3,2h[4:1],5,6,7h[4:1],2,1,8>4[8:1],,78,,7h[4:1],6,5,4h[4:1],5,6,7h[4:1],4,3,2h[4:1],7,8,1<5[8:1],,21,,
2h[4:1],1,8,7h[4:1],8,1,2h[4:1],7,6,5h[4:1],2,3,4V28[8:1],,4/8-4[8:1],,7,6,5,4,3,2,6,5,4,3,2,1,8-4[8:1],,18,,2-5[8:1],1,2,7-4[8:1],8,7,2-5[8:1],1,2,7-4[8:1],8,7,1-5[8:1]*-6[8:1],,1,,7^4[8:1],8,7,2^5[8:1],1,2,7^4[8:1],8,7,2^5[8:1],1,2,6-8[8:1]*-2[8:1],,6,,1q5[8:1],7,1,8p4[8:1],2,8,1q5[8:1],7,1,8p4[8:1],2,8,1<6[8:1]*>4[8:1],,1,,5-1[8:1],6,5,4-8[8:1],3,4,2-6[8:1],1,2,7-3[8:1],8,7,
{32}1,2,,4,5,6,7,8,61,5,4,3,2,1,8,7,
{8}6b/2bw6[8:5]*w6[8:5],,,,,,,,3b-8[16:1],,4b-7[16:1],,
{16}8,1,2,3,4b/8b,,,,6,5,6,5,6h[8:1],,3,4,3,4,3h[8:1],,6,5,6,5,6h[8:1],,3,4,3,4,3h[8:1],,6,5,7,4,
{32}8,1,2,3,4,5,6,7,
{16}3b,4,2,4,3h[8:1],,6,5,7,5,6h[8:1],,3,4,2,4,3h[8:1],,6,5,7,5,6h[8:1],,5bz1[16:3],,,,,,,,7b,8,6,8,7h[8:1],,2,1,3,1,2h[8:1],,7,8,6,8,7h[8:1],,2,1,3,1,2h[8:1],,7,8,6,1,
{32}5,4,3,2,1,8,7,6,
{16}3b,1,2,1,3,8,4,4,7b,5,6,5,7,4,8,8,3b/7b,,,2b/6b,,,1b/5b,,8bv6[8:1]/4bv2[8:1],,,,,,,,1,5,2,4,3h[8:1],,1,2,8,1,7h[8:1],,8,6,1,5,2h[8:1],,4,3,8,1,6,5,7b-3[8:1]*V13[8:1],,,,7b,,,,5,4,6,5,7h[8:1],,1,8,2,1,3h[8:1],,6,5,7,4,8h[8:1],,2,1,3,7,5,6,3bp7[8:1]*>7[8:1],,,,3b,,,,5,6,4,5,3h[8:1],,1,2,6,5,7h[8:1],,8,6,1,5,2h[8:1],,4,3,8,1,7,5,6bp2[8:1]*q2[8:1],,,,6b,,,,3b,1,4,8,5,7,4,6,3b,1,4,8,5,7,4,6,
{48}3b,2,1,8,,,,,3b,2,1,8,,,,,3b,2,1,8,,,,,
{16}7,6,5,4,
{32}3,2,1,8,7,6,5,4,
{16}3/7bp3[8:1],,,,3,2,1,8,7q3[8:1],,,,3,4,5,6,74,3,2,5,6,7,3,2,1,6,7,8,
{32}5,4,3,2,1,8,7,6,
{16}5/1b>5[8:1],,,,5,6,7,8,1<5[8:1],,,,5,4,3,2,14,5,6,4,3,2,5,6,7,3,2,1,
{32}5,6,7,8,1,2,3,4,
{16}1b-5[8:1]/5,,,,4,5,6,7,8-4[8:1],,,,5,4,3,2,16,7,8,2,3,4,7,8,1,3,4,5,
{32}8,1,2,3,4,5,6,7,
{16}8b/2b,,3,4,3,5,4,5,1b/7b,,6,5,6,4,5,4,
{48}6b,7,8,1,,,,,6b,7,8,1,,,,,6b,7,8,1,,,,,
{16}2,3,4,5,
{32}6,7,8,1,2,3,4,5,
{16}6/2b,,3,4,3-8[8:1],6,5,6,3/7h[8:1],,,6h[8:1],,,5h[8:1],,1,2,3,41,8,7,62,3,4,58,7,6,
{32}51,2,3,4,5,6,7,8,
{16}1b/5b,,5,4,6<1[8:1],2,4,3,6/2h[8:1],,,3h[8:1],,,4h[8:1],,8,7,6,58,1,2,37,6,5,41,2,3,
{32}48,7,6,5,4,3,2,1,
{16}8h[4:1]/4b,,,,,,6,5,4h[4:1]/7h[4:1],,,,,,2,3,1h[4:1]/4h[4:1],,,,,,7,8,16,,2,1,38,,3,8,
{24}2b,1b,2b,1b,2b,1b,2b,1b,2b,1b,2b,1b,2b,1b,2b,1b,2b,1b,2b,,,,,,
{12}12,38,47,18,27,36,78,16,25,
{32}3,4,5,6,7,8,1,2,3b/4b,,,,3b/4b,,,,3b/4b,,,,3,2,1,8,7,,,,6b/5b,,,,6b/5b,,,,6b/5b,,,,
{24}6,7,8,1,2,3,
{16},,3b,4b,2b/5b,,,3b/8b,,,1b/6b,,
{32}7b/8b,,,,7b/8b,,,,7b/8b,,,,7,6,5,4,3,,,,2b/1b,,,,2b/1b,,,,2b/1b,,,,
{24}2,3,4,5,6,7,
{16},,7b,8b,1b/6b,,3b/4b,,1b/7b,,5b/6b,,
{32}2b/3b,,,,2b/3b,,,,2b/3b,,,,1,2,7,6,4,,,,7b/6b,,,,7b/6b,,,,7b/6b,,,,
{24}8,7,2,3,5,4,
{16},,2b,1b,3b/8b,,,4b/7b,,,5b/6b,,
{32}7b/8b,,,,7b/8b,,,,7b/8b,,,,8,1,6,5,3,,,,2b/1b,,,,2b/1b,,,,2b/1b,,,,
{24}1,8,3,4,6,5,
{16},,4b,5b,
{12}3b,4b,2b,7b,5b,8b,
{32}1b/3b,,,,1b/3b,,,,1b/3b,,,,2,2,2,2,2,,,,3b/5b,,,,3b/5b,,,,3b/5b,,,,
{24}4,4,4,4,4,4,
{16},,7b/8b,7b/8b,1b/6b,,,3b/4b,,,2b/5b,,4b/6b,,4b/6b,,4b/6b,,
{32}5,5,5,5,5,,,,6b/8b,,,,6b/8b,,,,6b/8b,,,,
{24}7,7,7,7,7,7,
{16},,3b/4b,3b/4b,1b/2b,,7b/8b,,5b/6b,,3b/4b,,
{32}7b/1b,,,,7b/1b,,,,7b/1b,,,,8,8,8,8,8,,,,5b/3b,,,,5b/3b,,,,5b/3b,,,,
{24}4,4,4,4,4,4,
{16},,2b/1b,2b/1b,8b/3b,,,6b/5b,,,3b/4b,,
{16}8b,1,7,2,8b,1,6,3,8b,1,5,4,8b,1,6,3,
{32}8b,7,6,5,4,3,2,1,4,3,2,1,8,7,6,5,8,7,6,5,4,3,2,1,4,3,2,1,8,7,6,5,
{2}4/8b[4:6],,,,6h[1:2],,,,5h[1:2],,,,
{8}4h[1:1],,,,,,,,1<5[2:1]*>5[2:1],,,,,,,,4h[16:1],3h[16:1],5h[16:1],6h[16:1],4h[16:1],5h[16:1],3h[16:1],4h[16:1],2h[16:1],2h[16:1],3h[16:1],3h[16:1],4h[16:1],4h[16:1],5h[16:1],5h[16:1],3h[16:1],4h[16:1],3h[16:1],5h[16:1],4h[16:1],6h[16:1],4h[16:1],5h[16:1],7h[16:1],6h[16:1],5h[16:1],4h[16:1],6h[16:1],5h[16:1],4h[16:1],3h[16:1],
2h[16:1],1h[16:1],2h[16:1],2h[16:1],7h[16:1],8h[16:1],7h[16:1],7h[16:1],1h[16:1],8h[16:1],2h[16:1],7h[16:1],3h[16:1],6h[16:1],4h[16:1],5h[16:1],3h[16:1],1h[16:1],2h[16:1],8h[16:1],1h[16:1],7h[16:1],8h[16:1],6h[16:1],2h[16:1],1h[16:1],8h[16:1],7h[16:1],1h[16:1],8h[16:1],7h[16:1],6h[16:1],
5bw1[8:5]*s1[8:5],,,,,,,,
{16}3b/7b,,,,3b/7b,,,,3-6[8:1]/7-2[8:1],26,15,48,37,,,,8h[4:1]/1-5[8:1],,,,1,,7,6,4,3,2,1,7,6,5,4,
{32}1<6[8:1],2,3,,7,,,,1>4[8:1],,,,4,,,,1,,,,
{16}6h[8:1],5,,7,8,1,2b/7-3[8:1],,,,78,,1,2,4,5,6,7,1,2,3,4,
{32}8-3[8:1],7,6,,2,,,,8-5[8:1],,,,5,,,,8,,,,
{16}3h[8:1],,1,8,7,6,1b/5,,
3,4,2,4,1,4,8h[16:3],,,7h[16:3],,,6h[8:1],,5b,,6,5,7,5,8,5,1h[16:3],,,2h[16:3],,,3h[8:1],,4b,,5,,46,,3,,3b/5b,,6,,37,,2,,
{24}1b,2,3,5,6,7,2,3,4,6,7,8,
{32}3b,4,5,6,7,8,1,2,
{16}3b>8[8:1]/5bpp7[8:1],,,,35,,,,6h[8:1],,1,5,2,4,3,5,8,7,1,6,
{32}2-5[8:1],3,4,,8-4[8:1],,,,2,,,,8,,,,1-5[8:1],2,3,,7-3[8:1],,,,1,,,,7,,,,
{16}8b,,,,2h[8:1],,8,4,7,5,6,4,1,2,8,3,
{32}7-4[8:1],6,5,,1-5[8:1],,,,7,,,,1,,,,8-4[8:1],7,6,,2-6[8:1],,,,8,,,,2,,,,
{16}1b,,2,5,3,4,2,5,1h[8:1]/6h[8:1],,,2h[8:1]/7h[8:1],,,38,,3b/8b,,7,4,6,5,7,4,8h[8:1]/3h[8:1],,,7h[8:1]/2h[8:1],,,61,,5-7[8:1],,1-3[8:1],,5,,1,,8-5[8:1],,4-1[8:1],,8,,4,,
{24}8b,7,6,4,3,2,7,6,5,3,2,1,
{32}6b,5,4,3,2,1,8,7,
{16}4b/6b,,,,
2b,1,2,1,3,8,3,8,4,7,4,7,5,6,5,6,8,7,8,7,1,6,1,6,2,5,2,5,3,4,3,4,
2b,5,2,5,3,6,3,6,4,7,4,7,5,8,5,8,4,1,4,1,3,2,3,2,4,1,4,1,5,8,5,8,
4b,8,3,7,2,6,1,5,8,4,1,5,2,6,3,7,2b,8,2,8,5,6,5,6,4,7,5,6,4,7,5,6,
3b,4,2,5,1,6,8,7,4b,5,3,6,2,7,1,8,
{24}2,1,2,1,2,1,3,8,3,8,3,8,4,7,4,7,4,7,5,6,5,6,5,6,
{16}1,2,3,4,15,8,7,6,51,2,3,4,15,8,7,6,15,2,3,4,58,1,2,3,47,8,1,2,36,7,8,1,2/5b,4,3,2,15,6,7,8,15,4,3,2,15,6,7,8,1/5b,4,3,2,16,5,4,3,27,6,5,4,38,7,6,5,1bq6[8:1]/4h[4:1],,,,,,,,7bp2[8:1]/8h[4:1],,,,,,,,3bV15[4:1]/1,,,,5V73[4:1],,,,8b-4[8:1],,,,8,,,,3,4,2,5,3,4,1,6,3,4,8,7,1,6,8,7,
{12}26,26,26,15,15,15,48,48,48,37,37,37,2bq4[4:7]`6bq8[4:7]*q8[4:7],
