&title=素敵な墓場で暮しましょ
&artist=上海アリス幻樂団
&first=0
&des=Miko on your graveyard
&lv_5=13
&inote_5=(140)
{4},,,,
{12}7b/5-1[8:1],,,,,4,4q8[8:1],,,{16}3,,,1,
{48},5>7[16:5],,,{12},,,,,{24},,,,,5,,4,,,,4,,3-7[8:1],,,,,,{48},,{24},,,,,,1,,,,1,,8,,,,
{24}8,,7>4[8:2],,,,,,,,,,,,,,,,{48},,6,,,,6,,,,,,
{24},,,7>2[8:1]/5,,,,,,3,,,,3,,4<7[8:1],,,,,,2,,,,{48},1,,,{48},8-4[8:1],{24},,,,,{48},3,{24},,,,3,,4,,,,4,,5,,,,5,,6<1[8:1],,,,,,,,,,,,{48},2/3<6[8:1],,,{24},,,,,,,,,,,
{24}8<3[8:3],,,,,,,,,,,,,,,,,,,
{4},3<6[8:1],8,1<6[8:1],3,2<7[8:1],5,{12}4,,4,
{12}3,,3,2<7[8:1],,,3,,,5>7[8:4]/6,,,
{4},6,5,4-8[8:1],
{4}3,6>3[8:1],1,{12}8>3[8:1],,,
{12}6,,,7>2[8:1],,,4,,,{12}5,,5,
{12}6,,6,7>2[8:1],,,6,,,4<2[8:4]/3,,,
{4},3,4,5-1[8:1],
{4}6,7h[12:5]/2>6[16:3],,8-4[8:1],
{4}3,2-5[8:1],7-4[8:1],1-5[8:1],
{4}8<3[16:7],2h[12:5],,1-5[8:1],
{4}6,7h[12:5]/2>6[16:3],,8-4[8:1],
{4}3,{24}2,,,,2,,3,,,,3,,4-8[8:1],,,,,,
{24}7,,,,,,6,,,,6,,7,,,,7,,8-4[8:1],,,,,,
{24}1,,,,,,2b<6[16:3]/5h[12:5],,,,,,,,,,,,4<7[8:1],,,,,,
{4}1,2-4[8:1],2/1pp5[16:5],8b,
{4},{24}7h[4:1],,,,,,1,,,,1,,8<5[8:1],,,,,,
{24}3,,,,1,,4<7[8:1],,,,3,,4,,,,,,4,,,,5,,
{24}6,,,,6,,7h[8:2],,,,,,8,,,,,,1,,,,1,,
{24}2,,,,2,,3>8[8:2],,,,,,8<5[8:2],,,,,,5-1[8:1],,,,,,
{24},,,,,,{24}2h[4:1],,,,,,8,,,,8,,1>4[8:1],,,,,,
{24}6,,,,8,,5>2[8:1],,,,6,,5,,,,,,5,,,,4,,
{24}3,,,,3,,2h[8:2],,,,,,1,,,,,,8,,,,8,,
{24}7,,,,7,,6<1[8:2],,,,,,1>4[8:2],,,,,,4-8[8:1],,,,,,
{24},,,,,,6/5>2[8:1],,,,,,8,,,,8,,1>3[8:1]*<6[8:1],,,,,,
{24},,,,,,5<7[8:1]/4,,,,,,1,,,,1,,8>2[8:1]*<5[8:1],,,,,,
{24},,,,,,4-7[8:1]/3,,,,,,8,,,,,,1,,,,1,,
{24}8,,,,8,,7V15[8:2],,,,,,5-3[8:1],,,,,,6-2[8:1],,,,,,
{24},,,,,,3,,,,7,,5,,6,,5,,6,,,,2,,
{24}4,,3,,4,,3,,,,8,,5,,6,,5,,6,,,,1,,
{24}4,,3,,4,,3b-6[8:1],,,,,,7b>2[8:1],,,,,,4,,,,4,,
{24}5,,,,5,,6b-3[8:3]*-8>1-3[8:3],,,,,,,,,,,,,,,,,,
{4},4h[12:2]/7h[16:6],,1q5[8:1]*-4[8:1],
{4},6h[12:2]/2h[16:6],,{12}8,,8,
{12}1,,1,7,{24},,4/6h[12:1],,,,3h[24:1],,,,{6}2h[12:1]/5h[24:1],{12}4,,{6}3,7h[12:1]/2,6h[12:1]/1,{12}8,5,2,7,4,8,3,6,
{24}1h[16:6],,,,3<6[8:1],,,,,,,,{4}2-5[16:2],
{4},{24}8h[16:6],,,,6>3[8:1],,{4},{12}7,,7,
{12}1,,1,4,{24},,5h[12:1]/3h[24:1],,,,2h[48:1],,,,{6}26,{12}61,6,{6}61,7h[12:1]/4h[48:4],36,{12}5,4,7,1,5,3,6,4,8<4[16:3],,,,,2,2-6[8:1],,,
{12}8,,,7-5[8:1],,,3-8[8:1],,,4-7[8:1],,,
{12}2>5[8:1],,,8<2[8:3],,,,,1,1-5[8:1],,,
{12},,,2>7[8:3],,,,,8,8-4[8:1],,,,,,
{12}1,,1,2,,2,3,,3,4,,4,3>8[8:1],,,8,,4,4<7[8:1],,3,
{12}3,,,8h[12:3]/3b<7[16:3],,,,,1,1-5[8:1],,,
{12}2,,,1-5[8:1],,,1/8pp4[16:5],,,7b/8,,,
{12},,,{48},,
{12}6<1[8:1],,,5,,3,4<7[8:1],,,
{12}8,,2,1<6[8:1],,,4,,3,4<7[8:1],,3,
{12}4,,4,4-1[8:1],,,8,,,7,,7,
{12}6/1,,2,3/8-4[8:1],,4,8>3[16:2],,,8<3[8:2],,,
{12}2,,,1h[4:1],,,8,,7,8>3[8:1],,,
{12}4,,6,5>2[8:1],,,1,,7,8>3[8:1],,7,
{12}8,,8,8-5[8:1],,,4,,,3,,3,
{12}25,,6,7<4[8:1]/4,,4,7>4[8:3],,,7,,,
{12},,,8h[12:2],,2,1<6[8:1],,3,2,,2,
{12}1h[12:2],,7,8>3[8:1],,6,7,,7,
{12}8,,8,1,,1,5<8[8:1],,,4,,,
{12}3<6[12:1],,3,1<6[12:1],,1,
{12}2-6[8:1],,,4-8[8:1],,,3<6[8:1],,,
{12}7,,,1,,2,1,2,1,2,,2,
{12}3,4,3,4,,4,5,6,5,6,,6,7,8,7,8b>3[8:1],,,5,,,
{12}1b<6[8:1],,4,4,,4,3b-6[8:3]*-1<8-6[8:3],,,,,,,,,
