&title=雑踏、僕らの街
&artist=トゲナシトゲアリ
&first=-0.205
&des=AUR0RA
&des_6=AUR0RA
&lv_6=14+
&inote_6=(171){4},,,,{1}Cf/1b-5-2-7-3-1b[4:5],
{16},,,,,,,,,,,,,,,,4/3,
,,1,,,{8}8/7,{16},5,,,{8}3/4h[8:1],5h[8:1],
{16}6,,,8/7,,,{8}2/1,{16},3,,,{8}4,5,
{16}8/6,1,2,3,1,2,3,4,1,8,7,6,8,7,6,5,
2,4,2,6,5,7,3,7,2,8,2,6,1,7,3,7,
4,5,6,7,5,6,7,8,5,4,3,2,4,3,2,1,
{1}8h[4:7]/5-8-4-1[4:5],
{16},,,,,,,,,,,,,,,,7,
7,5,6,4,5,3,4,2,2,4,3,5,4,6,5,
7,8,6,1,5,3,6,4,1,2,8,3,6,4,5,3,
1,2,8,1,7,8,6,6,8,7,1,8,2,1,3,3,
6,5,7,3,4,2,7,6,8,2,3,1,6,5,{8}8,
{4}4h[2:1]/8V25[4:1],{8},,,,6,4/2,
{16},4/2,,,{4}4/2,{2}5h[2:1]/1V74b[4:1],
{16},,,,3,4,{8}7/5,{16},7/5,,,{4}7/5,
6h[2:1]/2V84b[4:1],{8},,,,3,4/2,
{16},4/2,,,{4}4/2,3/7-1-4[4:1],3-8[8:1],
{16},,,,6b/3b,,,5b/7b,,,{8}4b/2b,6b/3b,2,
{4}4-7-1-6[8:3],{8}1,2,3,4,{4}5-2-4-1[8:3],
{8}8,7,6,5,{4}4<4[2:1],{8}1,2,
3,4,{4}5h[4:1],{16}1,8,7,6,1,2,3,4,
{4}5b-2-8v3b[8:3],{8}8,7,6,5,{4}4bv7-5-8b[8:3],
{8}1,2,3,4,{4}5b-3-1-7-5b[2:1],{8}8,7,
6,5,{4}4bh[2:1],{32}B5,B6,B7,B8,B1,B2,B3,B4,{4}Cf,
{24},,,,,,3/B6,4h[24:5],,,,,,,,,,,3/B6,4h[24:5],,,,,,,,,,,{8}E6,
B5,B4,E4,{16}1,2,,3,
,,{8}4,{24}6/B3,5h[24:5],,,,,,,,,,,6/B3,5h[24:5],,,,,,,,,,,{8}E2,
B1,B8,E8,{16}5,6,7,8,
{4}Cf,{8}5/2,{16}3,4,{8}3,5/2,6,6,
7/4,{16}6,5,{8}6,7/4,3,3,6/2,{16}8,4,
{8}8,3/7,{16}1,5,{8}1,3/4,1/2,8/7,5/6,
2b/3b,1b/8b,7b/6b,5b/4b,E2,E2,{4}E2,
{16}6/8,6,,2/8,{4}8<4[8:1],{24}4/8,3,2,1,8,7,6,5,4,3,2,1,
{16}6/8,6,,8/2,{4}8<5b[8:1],{24}8b/5,4bx,3bx,2bx,,,{8}1x-3[8:1],8-6[8:1],
1-5[8:1],8-4[8:1],{4}1>1[2:1],,1-3-5-7-1b[8:3],
{16}5,6,7,8,,,,,6,5,{8}4,8-2[8:1],8-6[8:1],
{2}8-4[8:1],{16}6,8,8,1,7,8,8,2,
{8}4-8[8:1],5/3,{4}4/2,{16}3,1,1,8,2,1,1,7,
{8}5-1[8:1],6/4,{4}7/5,{8}8/2,{16}3,5,{8}3,8/2,
{16}7,5,{8}7,8/2,5,{16}7,5,6,5,5,4,5,3,
6,4,5,4,4,3,4,2,{24}5/1,6,7,8,1,2,3,4,5,6,7,8,
{16}1/3,3,,1/7,{4}1>4b[8:1],{24}1b/4,5bx,6bx,7bx,,,{8}8x-6[8:1],1-3[8:1],
8-4[8:1],1-5[8:1],{4}8<6>4>2<8[2:1],,8-6-4-2-8b[8:3],
{16}4,3,2,1,,,,,3,4,{8}5,1-7[8:1],1-3[8:1],
{2}1-5[8:1],{16}3,1,1,8,2,1,1,7,
{8}5-1[8:1],4/6,{4}5/7,{16}6,8,8,1,7,8,8,2,
{8}4-8[8:1],3/5,{4}2/4,{8}7b/1b,{16}6,4,{8}6,7b/1b,
{16}2,4,{8}2,1b/7b,4,{16}2,4,3,4,4,5,4,6,
3,5,4,5,5,6,5,7,{8}4h[8:1],{16}6,6,4h[8:1],5,{8}5,
{16}3/4h[8:1],3,,2,{8}2/4h[8:1],8<6-2>4[4:1],{16}3,,,4,,,{8}5-7v1-3[4:1],
,,{4}4,{8}5h[8:1],{16}3,3,5h[8:1],4,{8}4,
{16}6/5h[8:1],6,,7,{8}7/5h[8:1],1-5[8:1],8-2[8:1],,,4v7pp8-5[4:1],
,,{4}5,{8}7/3,{16}2,4,,6,{8}4,
{16}2,4-8[16:1],,6,{4}4,{8}6/2,{16}7,5,,3,{8}5,
7/6,6/5,5/4,3/4,3/2,{16}6,7,7,8,8,1,
1,2,2,3,{8}6,8bh[8:13]/5b-8-4-1b[8:9],,,,,,,,,,,,,,,,,8/C,
1/C,7/C,2/C,
6/C,3/C,5/C,4/C,{16}6,8,7,8,8,1,8,2,
7,1,8,1,1,2,1,3,5/4,,,7/6,,,{8}1/8,
{16},2/3,,,Cf,,,5b/6b,,,{8}8b/7b,{16},1b/2b,,,3b/4b,
,,5b/6b,,,7bx/3bx,8x/2x,{2}1xw5[4:1],
E
