&title=桜の頃 (M@STER VERSION)
&artist=高田憂希 / 立花理香 / 新田ひより / 田澤茉純 / 嘉山未紗
&first=0.02
&des=どやさぁ~
&lv_5=12+
&inote_1=
&inote_5=(82)
{1},
{16}7p4[4:2]/3^8[4:1],,,6,73,,,,,,,,2h,,,,
{16}2h[4:4],,,,,,{32}7,6,5,,{16},,,,,,,,
{16}5qq8[4:2],4,3,2,1h[8:5],,,,,,,,,,,7,
{16}2h[16:7],,,,,,,6,1h[4:2],,,,,,,,
{16}5qq8[4:2],4,3,2,1h[16:9],,,,,,,,,7h[16:3],,,
{16}1qq4[4:2],,,,,6,,,4>8[4:1],,,,,,,,
{16}6h[8:3],,4,3,2,,2,3h[16:5],,,5,6,7p4[16:6],,3,,
{16}2h[8:1],,,,2>6[4:1],,3,2h[16:3],,,,1,1h[4:1],,8,,
{16}7,,6h[16:4],,5,,4,3h[16:7],4,,,,,,4qq2[8:4],5q1[16:7],
{16}3b,,,,,,,,,,,,8b,,,,
{16}5<2[4:1]/4,,3,,5/2p5[4:1],,,,4,,4,3,2-6[12:1],,3,,
{16}2/7^4[12:1],,8,,1pp3[8:1]/7,,3>5[8:3],5,1,,,,7h,,,,
{16}8<3[4:1],,2,,8/3q8[4:1],,,,1,,1,2,3^8[12:1],,2,,
{16}35,,5h[16:4],,,,6h[8:1],,7V15[4:1],,,5,7h,,3,,
{16}2^5[12:1],,4/6^1[12:1],,2,,6,,4V26[4:1],,,6,,,8,,
{16}7,,3,4,,6,5,4,3-6[12:1],,4,5,3/7h,,8,,
{16}8h[4:2],,,,,,3,4,3,2,1,8,7h[4:1],,,,
{16}2h[8:7],,,,,,4,,,,6,,7h,,8,1,
{16}2,,4,5,6,7,8,1,4,3,2,1,8,7,6bpp8[4:1]/2bpp4[4:1],,
{16},,,,,,,,73,,56,,43,,12,83,
{16}7bv5[8:1]/4b>8[8:1],,8V24[8:1],,74,,,,5-1[12:1],,4,6,5^8[12:1]/7,,,,
{16}5-2[12:1]/3,,4,,5^8[12:1]/7,,6,,5/1pp1[16:3],,2,1<4[16:4],8,,,,
{16}7h[4:2],,,,4,3,2,1,8,,6/5,,4/2,,1,8h[16:3],
{16}1v6[12:1]*v4[12:1],,,,1,,,,7,,43,,82,,4,3,
{16}2v5[8:1]/5<1[8:1],,7/1>5[8:1],,2b/5b,,,,1-5[12:1],,2,6,1/5qq5[4:1],,,,
{16}5pp5[4:1]/2,,1,2,3,,2,,1^4[8:1]*q7[8:1],,7/4<4[8:3],8,1,,,,
{16}8h[8:4],,,,,,4h[4:1],,,,8<5[16:2],,4pp1[4:2],,8,4,,,
{16},,,,,,8,,7,1h[8:1],,,6,2,
{16}7b^4[8:1]/3-8[12:1],,4-8[8:1],,73,,,,1qq7[8:1]*^4[8:1],,7pp4[8:3],,1,,,,
{16}3,,,,,,2h[8:3],,,,,,,,,{48},6,5,
{16}4h[8:7],,,,,,3,2,1,,,2,,,3,,
{16}35,,6,5,,5,,,5,4,3,2,1,5,6,7,
{16}8b<4[8:1]/3b-8[8:1],,4q8[8:1],,3/8>6[4:1],,,,4-1[12:1],,,,4,,8,7,
{16}6/2-5[8:1],,5-1[8:1],,2/1^6[8:1],,6^3[8:1],,7,,,,7h[8:1],,,,
{16}5<1[8:1]/2-5[8:1],,1p5[8:1],,5>7[4:1]/2,,,,1-4[12:1],,,,1,,7,,
{16}84,,6,4,7h[8:1],,2-5[12:1],4,,4,2,,6,7,1,2,
{16}8<4[8:1]/3v8[8:1],,4>8[8:1],7,83,,,,4-8[12:1],,53,,4^1[12:1]/7^4[12:1],,,,
{16}7b/4b-8[8:1],,,,4b-1[12:1]/1b-6[12:1],,3b,,1b/4b>5[4:1],,,,42,,,,
{16}4h[4:4],,3,2,1,8,7,6,5,,,,,,,,
{16}5h[8:1],,3-8[12:1],4,,4,3,,7,6,5,,4,,3,2,
{16}1h,,8,7,6,5,4,3,25,6,7-3[12:1],8,1,2,3bqq5[4:3]/7bpp5[4:3],,
{16},,,,,,,,,,,,,,,,
{16}6h[16:2],5h[16:2],,,,,,,5h[16:2],4h[16:2],,,,,,,
{16}4h[16:2],3h[16:2],,,,,,,3h[16:2],2h[16:2],,,,,,,
{16}7,6,5,4,3,4,5,6,7h[8:3],,5,,3,,2,1,
{16}78,,64,,3,4,25,,71,,43,,71,,53,62,
{16}7/1s5[8:1],,,,7b/1b,,6,,5/2-6[12:1],,3,4,5^8[12:1]/2,,,,
{16}5-2[12:1]/3,,4,8,7/5<8[8:1],,6,2,5/2pp4[8:1],,4>5[4:1],8,2,,,,
{16}7h[4:2],,,,4,3,2,1,8,,6/5,,34,,2,1h[16:3],
{16}8-5[12:1]*-3[12:1],,,,8,,,,7b/1b,,4b/3b,,8b/1b,,34,25,
{16}1b>5[8:1]/6bv1[8:1],,5<1[8:1]/3,,1b/6b,,,,5-1[12:1],,4,6,5/7^4[12:1],,,,
{16}7/2-6[12:1],,3,4,2/5^8[12:1],,7,,2qq1[8:1]/5,,1>8[4:1],8,26,,6,,
{16}7h[8:3],,,,3,,4h[4:1],,,,7<4[8:1],,4pp8[4:2],,7,3,
{16}3,,3,2,,2,,3,4h[16:3],,,3h[16:3],,,2h[16:1],1,
{16}8b-4[8:1]/3b^8[8:1],,4b-7[8:1],,3b/8b,,,,1b>5[8:1]*qq7[8:1],,5b<1[8:1],,1b,,,,
{16}5qq8[8:5],,,,,,1h[8:3],,,,,,,,,{48},3,4pp1[4:3],
{16}5<4[4:11],,,,,,,,,,,,,,,,
{16},,,,{48}6,5,4,{16}3,,,,,,,,,,,
{16},,,,,,,,,,,,,,,,
