&title=Aleph-0
&artist=LeaF
&first=0
&des=WuWai
&lv_5=14
&inote_5=(250){1},,,,,,,
{16}E1/B8/B1/B2/B7/Ch[1:1]/E7/E3/B6/B3/B5/B4/E5,,,,,,,,,,,,,,,,
{16},,,,,,,,,,,,,,,,
{16},,,,,,,,8,,,,A1/A7,B1/B7,C,B5/B3,
{16}A3/A5,,,,4,,,,5,,,,A4/A6,B4/B6,C,B2/B8,
{16}A8/A2,,,,1,,,,5,,,,36,,,,
{16}3,,,,4,,3,,2,,,,1,,,,
{16}1/B2,,,,,,5,,,,,,4,,,,
{16}6,,56,,,,4,,54,,,,3,,,,
{16}2/4,,,,,,1,,7,,,,A8/B8,,,,
{16}6,,,,5,,6,,7,,,,8,,,,
{16}8/B7,,,,6,,65,,,,,,4,,,,
{16}3,,34,,,,2,,23,,,,1s5[4:1]*v3-5[4:1],,,,
{16},,,,,,,,,,,,,,,,
{16}27,,,,1,,8,,6,,,,7,,,,
{16}A1/8,,,,3,,4,,,,,,36,,,,
{16}2,,21,,,,8,,81,,,,6,,,,
{16}57,,,,8,,2,,1h[4:1],,,,B1/C,,,,
{16}27,,,,8,,1,,3,,,,2,,,,
{16}1/A8,,,,6,,5,,,,,,63,,,,
{16}7,,78,,,,1,,18,,,,3,,,,
{16}24,,,,,,,,65,,,,45,,,,
(70)
{16}3-6[8:13]/4,,,,,,,,,,B5/B4,,C,B5/B4,,,
{16}E1,,,B8/B1,C,,,,,,B5/B4,,C,B5/B4,,,
{16}8/B5/B4,1,2,3,4,5,6,7,8,1,2/B5/B4,3,4/C,5/B8/B1,6,7,
{16}8h[16:7],1,2,3,4,5,6,7h[8:2],6,5,4,3,{32}7,E4,E8,E5,E1,E6,E2,6x,
{16}2xv3-5[16:1],,,,,,,{128},,,,,Ch[128:16],,,
(250)
{32},,,,,,,,,,,,,,,,,Ch[32:15],,,,,,,,,,,,,,,
{1},,,
{16},,,,,,,,,,,,(1000)4,,,,,,,,,,,,,,,
(250)4b/5b,,,,
(251)3,,4,,
(252)2,,,,
(253)5,,,,
(254)34,,,,
(255)2,,4,,
(256)3,,,,
(257)5,,,,
(258)3,,4,,
(259),,4,,
(260)3,,,,
(261)7,,,,
(262)D2/E2,,,,
(263)D4/E4,,,,
(264)D6/E6,,,,
(265)D8/E8,,,,
(266)C,,,,
(267)6,,5,,
(268)7,,,,
(269)4,,,,
(270)56,,,,
(271)7,,5,,
(272)6,,,,
(273)4,,,,
(274)6,,5,,
(275),,5,,
(276)6,,,,
(277)2,,,,
(278)A7/A8/D8,,,,
(279)A6/A5/D6,,,,
(280)A4/D4/A3,,,,
(281)A1/D2/A2,,,,
(282)C,,,,
(283)2,,1,,
(284)3,,,,
(285)8,,,,
(286)12,,,,
(287)2,,1,,
(288)3,,,,
(289)8,,,,
(290)2,,1,,
(291),,1,,
(292)2,,,,
(293)7,,,,
(294)A1/E2/B1/E1,,,,
(295)E4/B3/E3/A3,,,,
(296)A5/E6/B5/E5,,,,
(297)A7/E7/B7/E8,,,,
(298)C,,,,
(299)7,,8,,
(300)7,,,,
(301)1,,,,
(302)78,,,,
(303)7,,8,,
(304)6,,,,
(305)1,,,,
(306)7,,8,,
(307),,8,,
(308)7,,,,
(309)2,,,,
(310)A7/A8/B7/B8/D8,,,,
(311)A6/A5/D6/B6/B5,,,,
(312)A4/A3/D4/E3/B4,,,,
(313)A1/A2/D2/B1/B2,,,,
(314)C,,,,
(315)3,,4,,
(316)3,,,,
(317)25,,,,
(318)34,,,,
(319)3,,5,,
(320)4,,6,,
(321)5,,,,
(322)6,,4,,
(323)5,,3,,
(324)4,,,,
(325)3,,,,
(326)D1/D2/A1/E1/E2/B1,,,,
(327)A3/D4/D3/E4/E3/B3,,,,
(328)A5/D6/D5/E6/E5/B5,,,,
(329)A7/D8/D7/B7/E8/E7,,,,
(330)C,,,,
(331)6,,5,,
(332)6,,,,
(333)47,,,,
(334)65,,,,
(335)6,,4,,
(336)5,,3,,
(337)4,,,,
(338)3,,5,,
(339)4,,6,,
(340)5,,,,
(341)6,,,,
(342)A8/D1/A1/E1/B8/B1,,,,
(343)D7/A7/A6/E7/B7/B6,,,,
(344)D5/A4/A5/E5/B5/B4,,,,
(345)D3/A2/A3/E3/B2/B3,,,,
(346)C,,,,
(347)3,,4,,
(348)3,,,,
(349)43,,,,
(350)45,,,,
(351)3,,4,,
(352)3,,4,,
(353)2,,,,
(354)4,,3,,
(355)4,,3,,
(356)5,,,,
(357)4,,,,
(358)D1/A1/A2/D2/E1/E2/B2,,,,
(359)A3/A4/D3/D4/E3/E4/B4,,,,
(360)A5/D5/A6/E5/D6/E6/B5,,,,
(361)A8/D8/A7/D7/E7/E8/B8,,,,
(362)C,,,,
(363)6,,5,,
(364)6,,,,
(365)65,,,,
(366)45,,,,
(367)6,,5,,
(368)6,,5,,
(369)7,,,,
(370)5,,6,,
(371)5,,6,,
(372)4,,,,
(373)5,,,,
(374)D8/A8/D1/A1/D2,,,,
(375)D5/A4/A5/D6/D4,,,,
(376)D8/A8/D1/A1/D2,,,,
(377)D5/A4/A5/D6/D4,,,,
(378)2bx,,1,,
(379)2,,1,,
(380)2,,,,
(381)7bx,,8,,
(382)7,,8,,
(383)7,,,,
(384)2bx,,3,,
(385)2,,3,,
(386)2,,,,
(387)7bx,,6,,
(388)7,,6,,
(389)7,,,,
(390)3bx,,4,,
(391)3,,4,,
(392)3,,,,
(393)6bx,,5,,
(394)6,,5,,
(395)6,,,,
(396)4,,5,,
(397)3,,6,,
(398)2,,7,,
(399)1<1[8:31],,8,,
(400){16}C,,,,,,,,,,,,,,,,
{16},,,,,,,,,,,,,,,,
{16},,,,,,,,,,,,,,,,
{16},,,,,,,,,,,,,,,,
{16}E8,,E3,,B6,,A1,,B8,,B3,,A6,,B1,,
{16}B7,,D3,,A5,,E4,,E7,,E2,,D8,,D4,,
{16}B6,,B1,,A8,,E3,,E7,,E2,,B5,,A3,,
{16}A7,,E1,,B6,,B3,,A5,,D2,,E8,,B4,,
(250)
{16}Chf[999:1],,,,,,,,,,,,,,,,
{16},,,,,,,,,,,,7,,,,
{16}1,,C,,1,,5,,C,,5,,Ch[1:1],,,,
{16},,,,,,,,,,,,2,,,,
{16}8,,C,,8,,4,,C,,4,,Ch[2:1],,,,
{16},,,,2,,6,,C,,6,,2,,C,,
{16}2,,6,,C,,6,,2,,C,,2h[1:1],,,,
{16},,,,,,,,,,,,7,,,,
{16}C,,7,,3,,C,,3,,7,,Ch[2:1],,,,
{16},,,,8,,C,,8,,4,,C,,4,,
{16}B8,,,,B7,,,,B6,,,,B5,,,,
{16}B4,,,,B3,,,,B2,,,,B1,,,,
{16}D1/D2/D3/D4/D5/D6/D7/D8/A1/A2/A3/A4/A5/A6/A7/A8,,,,,,,,,,,,,,,,
{16},,,,,,,,,,,,45,,,,
{16}2p7q4p1q6p3q8p5[4:43]/7,,,,,,,,,,,,,,,,
{16}E5,,,,,,,,C,,,,,,,,
{16}E1,,,,,,,,,,,,,,,,
{16}E1,,,,,,,,C,,,,,,,,
{16}E5,,,,,,,,,,,,,,,,
{16}E7,,,,,,,,C,,,,,,,,
{16}E3,,,,,,,,C,,,,,,,,
{16}E7,,,,,,,,E3,,,,,,,,
{16}C,,,,,,,,,,,,,,,,
{16}E5,,,,,,,,C,,,,,,,,
{16}E1,,,,,,,,C,,,,,,,,
{16}4-1[4:9],,,,,,,,,,,,,,,,
{16}8-5[4:5],,,,,,,,,,,,,,,,
{16},,,,,,,,,,,,,,,,
{16}3h[2:2]/6h[2:3],,,,,,,,,,,,,,,,
{16},,,,,,,,,,,,,,,,
{16}E2,,B6/B5,,B3,,E8/B7,,A2,,E5,,B1/E2,,D7,,
{16}E4/B4,,E1,,E7/B6,,A2,,B3,,E8/B8,,B1,,E6/B5,,
{16}4x,,,,,,,,,,,,,,,,
{16}D8/A8,,B3/E3,,E7/B6,,E1/B1,,A5/E5,,A2/D3,,B7/E8,,B4/E4,,
{16}D6/E6,,E3/D3,,B6/E7,,D2/E2,,A5/D5,,E4/B3,,B7/B8,,A1/D2,,
{16}D1/E1,,B4/E5,,B6/E6,,A3/B3,,A8/B8,,A4/B4,,A5/B5,,A1/B1,,
{16}A7/B7,,A3/B3,,A6/B6,,A2/B2,,D5/E5,,E1/D1,,D7/E7,,E3/D3,,
{16}5x,,,,,,,,4x,,,,,,,,
{16}E8/B8/B7,,E4/B3/B4,,E6/B5/B6,,B1/B2/E2,,A7/D8/A8,,A4/D4/A3,,A6/A5/D6,,D2/A1/A2,,
{16}E8/B8/B7,,E4/B3/B4,,E6/B5/B6,,B1/B2/E2,,A7/D8/A8,,A4/D4/A3,,A6/A5/D6,,D2/A1/A2,,
{16}5x,,,,,,,,4x,,,,,,,,
{16}A1/A2,,A5/A6,,A4/A3,,A7/A8,,E1/E2,,E5/E6,,E3/E4,,E7/E8,,
{16}D1/D2,,D5/D6,,D3/D4,,D7/D8,,B1/B3,,B5/B7,,B2/B4,,B8/B6,,
{16}A1/A2,,A5/A6,,A4/A3,,A7/A8,,E1/E2,,E5/E6,,E3/E4,,E7/E8,,
{16}D1/D2,,D5/D6,,D3/D4,,D7/D8,,B1/B3,,B5/B7,,B2/B4,,B8/B6,,
{16}4x,,,,,,,,5x,,,,,,,,
{16}Ch[32:9],,,,,,Ch[32:8],,,,,,,,Ch[16:2],,
{16},,Ch[16:3],,,,,Ch[16:4],,,,,,Ch[16:2],,
{16},,Ch[16:3],,,,,,,Ch[16:3],,,,,Ch[16:3],,
{16},,,,Ch[16:5],,,,,,,,,,Ch[4:1],,
{16},,,,Ch[16:5],,,,,,,,,Ch[4:1],,,,
{16},,,,,,,Ch[16:3],,,,,Ch[4:1],,,,
{16},,Ch[32:5],,,,,,Ch[64:10],,,,,Ch[6:1],,,
{16},,,Chf[16:13],,,,,,,,,,,,,
{16},,,,,,,,,,,,,,,,E
