&title=B_B(비_비)
&artist=Shu ft towana (fhána)
&first=0
&des=lowbackpan
&des_5=
&lv_5=14
&inote_5=(165){4}Ch[2:1],,{32}D8,A8,D1,A1,{8}D2,{4},{16}2,
4,3,5,4,6,5,7,6,8h[8:1],,3,,2,1,2,
{8}1h[16:3],3,{16},8,2,7,{8}4h[8:1],1,6h[8:1],8,
{16}7,5,6,4,5,3,4,2,3,1h[8:1],,6,,7,8,7,
{8}8h[8:1],{16}6,8h[8:1],,6,{8}8h[8:3],,5,{4}B4/B3/Cf,
{8}2/8,{16}1,4,3,7,5,6,4,8h[8:1],,3,,2,1,2,
{8}1,{16}7,8,,6,5,7,{8}3/4,1,6/5,8,
7/1,{16}8,5,6,2,4,3,5,1h[8:1],,6,,7,8,7,
{8}8,{16}2,1,,3,4,2,{4}1-5[8:1]/6-2[8:1],6/1,
{16}3,1,2,8,1,7,8,6,7,5,,2/4,,3,4,3,
{8}4,{16}2,1,,5,3,6,{8}1/8,4,7/8,5,
{16}6,8,7,1,8,2,1,3,2,4,,7/5,,6,5,6,
{8}4/3,{16}2,3,2,3,2,3,{8}4b/5b,7b/6b,{4}8b/1b,
{8}3-8[16:3],{4},{8}7,6,5,,{16}3,4,
{8}2h[4:1],8,1h[4:1],5,4h[8:1],7,,6/1,
{16}7,8,7,8,,6,4,5,3,1,2,1,{8}2,{16}8,1,
,6/3,,7,{8}8,5/4,{4}8/3,{16}2,1,2,1h[16:3],
{8}B5,B5,{16}7,8,7,8h[16:3],{8}B4,B4,{16}6-2[8:1],1,6,1,
{8}6-8[8:1],1,6-4-8[4:1],3,6,1,{4}3,
{16}2,8,2,8,{8}7/1,6/2,{16}5,3,5,3,{8}4/2-7[8:1],5/1,
2-4-8-3[16:5],6,2,6,{4}5w1[8:1],5b,
7h/3h,8h/2h,{16}6h/4h,{8},{16}6h/4h,{8},6h/4h,
7/3v8[16:3],1,3>5[4:1],5,{4}3,1,
2h/6h,1h/7h,{16}3h/5h,{8},{16}3h/5h,{8},3h/5h,
2/6-4[8:1],8,6/2qq3[4:1],8,{4}2,6,
{8}4h[16:1]/5h[16:1],4h[16:1]/5h[16:1],3h[16:1]/6h[16:1],3h[16:1]/6h[16:1],2h[16:1]/7h[16:1],2h[16:1]/7h[16:1],1h[16:1]/8h[16:1],1h[16:1]/8h[16:1],
2h[16:1]/3h[16:1],2h[16:1]/3h[16:1],4h[16:1]/5h[16:1],6h[16:1]/7h[16:1],{4}8h[16:1]/1h[16:1],{8}6/3,6/3,
{16}4,3,2,1,5,6,7,8,3,2,1,8,6,7,8,1,
{8}4/2,1/8,7/5,8/1,{4}2-5[8:1]/4-8[8:1],2/4>1[8:1],
8/4b<7[8:1],8/4bz8[8:1],{64}4b,B4/B5,Cf,B8/B1,,,,,,,,,,,,,{8}2/7,{16}3,5,
4,6,{8}5,7/8,1/2,{4}3/4-1[8:1],{8}4/6,{16}7,7,
8-5[8:1],7,{8}8,8/2,{16}3,3,4,3,{8}4,5/6,8/7,
1/2,{16}1/2,3/8,{8}4v2[8:1]/7v1[8:1],6/5,{4}7/4,{8}3/8<5[8:1],2/1,
{4}4/8b>3[8:1],4/8bz4[8:1],{64}8b,B8/B1,Cf,B5/B4,,,,,,,,,,,,,{8}6/3,{16}2,8,
1,7,{8}8,6/5,4/3,{4}2/1-4[8:1],{8}1/7,{16}6,6,
5-3[8:1],6,{8}5,5-2[8:1],6,{16}5,7,,7,{8}8/1,2/3,
{4}5b-2[8:1]/4b-7[8:1],5b-1[8:1]/4b-8[8:1],5b/4b,6-8[8:1],
{16}4/6-2[8:1],{8},{16}5,{8}6-8[8:1],4,{16}4/6-2[8:1],{8},{16}5,{8}6,4,
3/4,1/7,3/5,8/7,{16}3/1,{8},{16}4/6,{8},{16}5,4,
5/3-1[8:1],{8},{16}4,{8}3-7[8:1],5,5/3-1[8:1]b,4,5/3-8[8:1]b,4,
3/6,7,1/6,8/3,{4}4b-8[8:1]/5b-7[8:1],5/4>1[8:1],
{16}4/6<1[8:1],{8},{16}6,{8}6/4>1[8:1],5,{16}4/6<1[8:1],{8},{16}6,{8}6/4,5,
2/4,7/5,1/3,8/6,{16}3/2,{8},{16}8/7,{8},{16}6,2,
6,2,6,2,8,2,8,2,8,4,8,4,8,4,2,4,
{8}2,{16}4,3,{8}4,5/2,{4}2<7[8:1]/5>2[8:1],5/2,
5b-8[8:1]/8b-3[8:1],5/8qq5[16:5],{8}4-2[8:1],2,{4}4,
{24}1/5-2[8:1],6/2,7/3,8/4,{12},{8}5/1<8v3<4[4:1]b,8,1/6-2[8:1],5,{16}6,{8},{32}5,6,
7-4[8:1],8,1,2,{8}3,7/2-6[8:1]b,1,2,{32}4,3,2,1,{4}8/5,
{8}1/5,{16}8,4,2,8,4,6,{8}2/5,8/7,6/4,1/2,
{4}6b-8[8:1]/8b-3[8:1],6/8qq5[8:3],{16}4-1[8:1],3,{8}2,{4}4,
{16}2,4,3,6,{8}5,{24}5/8,4/7,3/6,{8}5/2-6[8:1],8/7,{16}2/5,{8},{32}4,3,
2-4[8:1],1,8,7,{8}6-8[8:1],2-8[8:1],6-4[8:1],2-4[8:1],6-8[8:1],2-6[8:1]b,6-4[8:1]b,
2,{16}1,1,,8/3,7/2,6/1,{4}8h[16:3]/5h[16:3],{8}7-3[8:1]/4<7[8:1],8,
{4}7b/4b-2-6[4:1]b,{8}8-4[8:1],7,{4}8bqq3[4:3],{8}2hb[16:1],2h[16:1],
1,1h[16:1],2hb[16:1],1h[16:1],1b,2/4,4/5,5/7,
{32}7/5,8,1,2,3,4,5,6,2/7-3[8:1]b,1,8,7,6,5,4,3,{4}7b/2pp8[2:1],{8}6hb[16:1],6h[16:1],
7h[16:1],6h[16:1],5b,4,4b-7[8:1]/2b-8[8:1],3,{4}2/4-1[8:1]*-8[8:1],
4b-6[8:1],8/4-2[8:1],{16}4<5-1-3[4:1]b,8,,8,{8}4q8[8:1],6,
{4}4b<1[16:3]b,1/4-8[8:1],{16}4-7[8:1],2,,2,{4}4,
{8}8b/4b,{16}1,5,7,1,5,3,7/4,7/4,,2/6,,7,3,7,
{8}1,{16}5,3,,7,5,1,{4}5,8/4,
{2}Ch[2:1],{32}D2,A1,D1,A8,{8}D8,{4},3h[8:1],
3h[8:1],3h[8:1],3h[8:1],
7h[8:1],7h[8:1],7h[8:1],7h[8:1],
2h[8:1],2h[8:1],2h[8:1],2h[8:1],
{2}8b,{8}5/4-1[8:1],3,{4}4/7>4[4:1],
7,{8}1,6,5/4-1[8:1]b,3,{4}4/7>4[4:1]b,
7,1,{8},8/7-4[8:1],6,7,
{4}1-5-2[4:1],{8}7,6<1[8:1],,6/4>6[16:11],,4h[8:5],
{1},{4}E4/B4/B3/B8/E8/B7,
E2/B2/E3/E7/B6/E6,E4/B3/B4/B8/B7/E8,{16}6,6,,4,
{8},3/5,4/6,5/7,{4}6/8,{8}4-8[8:1]b/5-1[8:1]b,3/6,
{16}5b-2[8:1]b/4b-7[8:1]b,Cf,,,5b-1[8:1]b/4b-8[8:1]b,B3f/B6f,,,{16}4b/5b,Cf,,,{16}2/7,7/2,2/7,2h[8:1]/7h[8:1],
{8},{16}2/7,3/6,{8}5/4-1[8:1],3/6,{4}5/4<7[8:1],{16}4/8,1,2-5[8:1]b,3h[16:3],
{8},2,{16}8,1/6,7/2-6[8:1]b,8/3h[16:3],{8},2,{16}8,1/7,2/8,1h[8:1]/3,
{8},{16}4/8,3/7,{8}6-1[8:1]/2-5[8:1],5/1,{4}6/2,{8}7-5[8:1]/3-1[8:1],1/5,
{4}7b-2[8:1]/3b-6[8:1],7b<4[8:1]/3b>8[8:1],7b/3b,{8}5b/1b,6b/7b,
3b/1b,7b/5b,3b/2b,8b/6b,{4}4b/3b,{16}4,4,5,5h[16:3],
{8},1b,5/4-8[9:1],8b,4/5<8[8:1],6,1/5,3,
{4}5/1h[8:7],{8}4,3,2,8,7,6,
{24}5/1,4/8,3/7,2/6,5/1pp8<4[8:11],8,7,6,5,4,{12}3h[3:4],{2},,,{16}1,
5,3,1,5,7,1,6/2-5[8:1],2/6,{8},{16}8/2,,1,8/4,7/3,
{8}6/2,{16}7,8,,1,5,3,{4}8b-5[8:1]/4bv1[8:1],4b/8b,
{16}5,1,7,5,1,3,5,2/6-1[8:1],6/2,{8},{16}5/6,,5,4/8,3/7,
{8}2/6,{16}3,4,,5,1,7,{8}4/8,3/2,8/4,6/7,
{16}4,8,2,4,8,6,4,7/3-8[8:1],3/7,{8},{16}3/4,,4,5/1,6/2,
{8}7/3,{16}8,4,8,4,8,4,{8}1-5[8:1]/5-1[8:1],6/2,{4}1b/5b<8[8:1]b,
{16}5/3>8[8:1]b,{8},{16}3,{8}3/5<8[8:1]b,4,{16}5/3>8[8:1]b,{8},{16}3,{8}3/5,4,
1b/7b,3b/4b,8b/2b,5b/6b,{16}8b/1b,{8},{16}5b/4b,{8},{16}3,7,
3,7,3,7,1,7,1,7,1,5,1,5,1,5,7,5,
{8}7,{16}5,6,{8}5,4/7,{4}7>2[8:1]/4<7[8:1],4bz8[8:13]/7bz3b[4:5],
E
