&title=Radiant
&artist=塞壬唱片-MSR & Forts
&first=0
&des=S74390E2 the Zephyr Knight
&lv_5=14
&inote_5=(176)
{8},,,,,,,,
{8}8-4[4:5]/1-7[8:5],,,,,,,,
{8},,,,,,,,
{8}1-7[4:1],,,,2-6[4:1],,,,
{8}3-5[4:1],,,,,,7,,
{8}8v1v3v4[4:5]*v7v5v4[4:5],,,,,,,,
{8},,,,,,2,,
{8}1>3v1-5[4:5]*<7v1-5[4:5],,,,,,,,
{8},,,,,,7,,
{8}1-5[4:1]/8-4V28V64[4:6],,,,,,,,
{8},,,,,,,,
{8}1V75>4[4:5]/7V13<4[4:5],,,,,,,,
{8},,,,,,7,,
{8}8<6v4[4:5]/B8,,,,,,,,
{8},,,,,,2,,
{8}3V58-3[4:4],,,,,,,,
{8},,7,,8-4[4:1],,3>5[4:4],3,
{8},6,6h[4:2],,,,,,
{8},,8h[4:1],,2-6[4:1],,7>5[4:4],7,
{8},5,5h[8:3],,,,6h[4:3],,
{8},,,,,,1,2,
{8}3xV51[4:2],,5-7[8:1],5,,,8xh[4:2],,
{8},,,,1x,,2x/8x,,
{8}3x<7[32:15]/7x,,,6<2[32:15],,,1>5[32:15],,
{8},,8,,7,,6-1[4:1],6,
{8},2>7[8:5],2h[4:3],,,,,,
{8},,8h[4:2],,6,,5<7-3>8[64:55],6,
{8}4h[4:1],,,,1<7-3<5[4:3],1,,,
{8}4h[4:3],,,,,,,,
{8}2h[4:3]/6,,5,5,,3,3q5<8[4:3],,
{8}1h[4:3],,,,,,,,
{8}7h[4:3]/3,,4,4,,6,6-3V15[4:3],,
{8}8h[4:3],,,,,,,,
{8}7,7<4[8:1]/5,,3,2>5[8:1],,2/5,6,
{8}8-3[8:1],,4-7[8:1],,1<4[4:1],,,,
{8}2,2h[4:1],,,8/2,8,8-5[8:1]/1,,
{8}8x-3[8:1],,8x-5[8:1],,8x-3[8:1],,8x,,
{8}7,2/6h[4:1],,1,2/4,5,4h[4:1]/6,,
{8}7-2[8:1],,3-6[8:1],,4-8[8:1],,1,,
{8}2x/1x,2,2,3/5,5,5,4/7,4,
{8}4,2/6,6,6,1-6[8:1],5,1b,,
{8}7h[8:1]/C,,7h[8:1]/E5,,7h[8:1]/E4,,7h[8:1]/E3,,
{8}7h[8:1]/2V84[4:2],,7h[8:1]/2,,7h[8:1],,7h[8:1],,
{8}4h[8:1]/E6,B7,4h[8:1],,4h[8:1]/8,,4h[8:1]/8-3[8:1],,
{8}4h[8:1]/8x-5[8:1],,4h[8:1]/8x-3[8:1],,4h[8:1]/8x-5[8:1],,4h[8:1]/8x,,
{8}4/6,6,4/6,6,3/7,3,3/7,3,
{8}2/8,8,2/8,8,1,1,1,1,
{8}1bh[4:3],,,,Ch[8:1],,,,
{8}4/7,5,6,3/8,1,2,3b/7b,,
{8}2-6[8:1],5,2,7-3[8:1],4,7,2-6[8:1],4,
{8}2-4[8:1],5,2-6[8:1],6,2-8[8:1]*>5[8:1],,,,
{8}7xh[4:1]/5x,,1,2/6,3-5[8:1],6,3-6[8:1],7,
{8}3-8[8:1],8>3[8:1],3<5-1b[4:1],7,6,,E8/B7,,
{8}7-4[8:1],4,7,2-5[8:1],5,2,7-5[8:1],3,
{8}7-3[8:1],4,7-4[8:1],4V68[4:1]*V62[4:1],7,,,,
{8}1xh[4:1]/7x,,5,2/6,7-2[8:1],3,7-4[8:1],4,
{8}7-3[8:1],3-7[8:1],7V51b[4:1],2,1,,B2/A2,,
{8}1-5[8:1],6,1,8-4[8:1],3,8,1-3[8:1],7,
{8}1-5[8:1],5,1-4-2-7b[8:3],4V25[4:1],1,,,,
{8}6x/4xh[4:1],,8,7,6-3[8:1],5,6-1[8:1],2,
{8}6-3[8:1],3<6[8:1],6<8-4b[4:1],2,1,,B2/B1,,
{8}5-1[8:1],4,5,4-8[8:1],5,4,5-1[8:1],3,
{8}5-7[8:1],4,5-2-5[4:1],2-5-8[4:1]*-5-1b[4:1],5,,,,
{1}2bxh[4:6]/Ch[4:7],
{4},,,1b,
{8}E7/C/E3,,4b/5b,6,1/7,2,3/4,2,
{8}1/8,2,3/4,2,1/8-4[8:1],7,6h[4:1]/8,,
{8}2b,,3/5,7,4/6,2,3/5,7,
{8}8<3[4:1]/1,,3<8[4:1],,8qq6[6:1],,1-4[8:1],1,
{8},,3x,3x<7[4:1],,7xV14[4:1],,4xz8[4:1],
{8},8,,7x-3-5[4:1],,5x-1>2[4:1],,2x-7[8:1],
{8},,3,2,1/8,7,6h[4:1]/5,,
{8}1,,2/8,{16}3,4,{8}3<6[8:1],2,1b/3b,,
{8}D8/E8,,2/8-5[8:1],1,2-5[8:1]/8,1,2/7-2[8:1],8,
{8}4-1[8:1]/7,3,6-1[8:1]/4,7,6/3v8[8:1],2,3/7,,
{8}C/B8/B2,,1-5[8:1]/7,2,6-8[8:1]/1,7,4-2[8:1]/6,3,
{8}4/1-5[8:1],,1/4,3,2v1[6:1],,6,6,
{8}7-4[8:1],,3-8[8:1],3,,6,6>8-4[4:3],,
{8}2h[4:3],,,,,,,,
{8}1<7-3<5-1b[4:6]/Ch[4:7],,,,,,,,
{8},,,,,,,,
{8}4/6,8<5[8:1],,3/8,1>4[8:1],,1/5,6,
{8}7<3[4:1],,3>7[4:1],,B3/B4,C,,,
{8}1/7,3<6[8:1],,3/5,7-4[8:1],7,2-6[8:1],2,
{8}2/8-6[8:1]*-5[8:1],,8x-2[8:1]*-3[8:1],,8xw4[8:1],,8xb,,
{8}2x/6x,1>6[8:3],,1/5,6,7,8-5[8:1],,
{8}8/2-5[8:1],,2/6<1[8:1],,3/6,,C/B7/A7/B2/A2,,
{8}1-5[8:1]/8,,1/6,7,8v3[8:1]*v5[8:1],,8,,
{8}6,7,1/8,{16}3,4,{8}2v5[8:1],1,2b/8b,,
{8}4/6,7<4[8:1],,7/3,2-6[8:1],,2/6,7,
{8}8-5>4[4:1],,4-7[8:1],,3b-7[8:1],2,,,
{8}1x/8x,2h[4:1],,4,6-2[8:1],6,4-8[8:1],4,
{8}1-5b[8:1],,1x>4[8:1]*<6[8:1],,1xw5[8:1],,1b,,
{8}3/7,2/8<3[8:3],,4/8,3,2,1>4[8:1],,
{8}1/7<4[8:1],,2<7[8:1]/7,,2/7,6-1[8:1],,,
{8}3h[4:1],,,,5h[4:1]/7h[4:1],,,,
{8}8h[4:1],,2,{16}1,1,{8}1,2/8,3-8b[8:1]/7-4[8:1],4>4z8-5[8:39]/6,
{8}3b/7b,,,,,,,,
{1},,,,,
