&title=girls.exe
&artist=rintaro soma
&first=0
&des=Soma Rintaro
&wholebpm=188
&clock_count=4
&lv_5=14+
&inote_5=(188)
{1},
{8},,Ch[8:1],,
{24}E8,C,E4,,,,
{4},1xqq1-6-2-4v5[1:3],,,,,,,,,,,,,,,,
3x^2-5-7^8-5-3[1:3],,,,,,,,,,,,,,,,
{4}7,7^5-1[2:1],E1/B8,,,3^5[4:1],E3/B2,,
7,7^1-5[2:1],E5/B4,,
{16}A4,E4,E3,A2,A6,E7,E8,A8,A5,B5,B1,A1,Ch[4:1],,,,
{16}3x,3,3,3,3,3,3,3,1x,1,1,1,1,1,1,1,
7x,7,7,7,7,7,7,7,5x,5,5,5,5,5,5,5,
4h[32:1],6h[32:1],4h[32:1],6h[32:1],4h[32:1],6h[32:1],4h[32:1],6h[32:1],
3h[32:1],7h[32:1],3h[32:1],7h[32:1],3h[32:1],7h[32:1],3h[32:1],7h[32:1],
{32}2x,3,4,,,,7x/8x,6,5,,,,1x/2x,3,4,,,,
{24}7x/8x,6,5,4,3,2,1,8,7,2/6,,,,,,,
{384},,,,,,,,
{4},,,,,
{16}C,C,C,C,C,C,C,C,3xbh[8:1],,,,1-5[6:1]b/2,,,,1x/6,6h[16:1],,,6,,
5/7,,3h[16:1]/4h[16:1],,3h[16:1]/4h[16:1],,2/5,,
3h[16:1]/4h[16:1],,3h[16:1]/4h[16:1],,2/5,,
{24}6,7,8,4,3,2,1/8-4[6:1]b,,,,,,
{16}1/8,,,,3,3h[8:1],,4,3,,5/6,,4h[4:1],,8,,3h[4:1],,1,,2,,3h[32:1]/7h[32:1],,,,,,
{24}2b/8b,3/7,4/6,5,,,
{16}1,1,1,1,1,,2/8,,7,,{24}3,4,3,5,,,
{16}2,,7h[64:1],6h[64:1],7h[64:1],6h[64:1],7h[64:1],,5,,1/7,,2/6,,
{16}3h[8:1],,7,6,1/5,,2,3,4/8,,7,,3/6,,2-6[8:6]b,,,
E7,,,B5,,,B1,,,E3,,,Ch[16:3],,,,,
7x,8x,7x,,{24}E1,B1,B2,E3,E8,B7,B6,E6,,
{16}4,4,4,4,4^7[6:1],,3h[16:1],,3h[16:1],,2h[8:1],,8,,
1h[8:1],,E3/B3,,5h[8:1],,B7/E7,,6,4,8,,2/7-4[6:1],,7,,3-8[6:1],,,,3/7,,,,
{24}7,6,7,6,7,6,7xh[48:1],6xh[48:1],5xh[48:1],4xh[48:1],3xh[48:1],
2xh[48:1],1xh[48:1],8xh[48:1],7xh[48:1],
{16},,,,4-8[6:1]/6h[8:1],,,,2h[8:1]/4,,,,
{12}3,3,3,7x,7x,7x,{24}8,7,,8,7,,1/6,,,8,7,,8-4[6:1],7-4[6:1],,2x/5x,,,
{16},,,,2h[8:1],,,,3h[8:1]/7h[8:1],,,,
{32}B1,B2,B3,B4,B5,B6,B7,B8,E2,E3,E4,E5,E6,E7,E8,E1,
{16}E5/B5,,E3/B3,,E7/B7,,E1/B1,,
5,5,,,4/5,4/5,,,
6b-1[6:1],,3,,4,,5-2[6:1],,8,,7,,6-1[6:1],,3,,4,,
5-2[6:1],,8,,7,,6,,1,,2/5,,3,,4-7[6:1],,1,,2,,
3-8[6:1],,6,,5,,4-7[6:1],,1,,2,,3-8[6:1],,6,,5,,
4,,1,,2xh[32:1]/7xh[32:1],,3,,6-3[6:1],,8,,1,,2-7[6:1],,
4,,5,,6-3[6:1],,8,,1,,2-7[6:1],,4,,5,,6-2[6:1]*-8[6:1],,,,
6x,,,,1,,1,,3/4,,2,,5,6,7,8,4,3,2,1,7,6,5,4,8,7,6,5,4/8,3/7,2/6,1/5,E1/E5,,,,
3/4,,3/4,,3,4,3,,6,5,7,,3/4,,2,,3,4,3,,6,5,7,,3-8[6:1]/8-4[6:1],,,,3/8,,,,
6/5,,6/5,,6,5,6,,3,4,2,,6/5,,7,,6,5,6,,3,4,2,,6-8[6:1]/1-5[6:1],,,,6/1,,,,
3/4,,3/4,,3,4,3,,B5,B6,E7,,1x,,1x,,E2,E3,E4,,E1,E8,E7,,5^8[6:1],,,,3/5,,,,
2,1,3,8,4,7,5,6,4,5,3,4,2,5,1bh[4:1],,,,8,,
{24}2/7,3/6,4/5,,,,
{4}Cf,,
{16}1b,2,3,4,1,8,7,6,4,3,2,1,7,6,5,4,8,7,6,5,8,7,6,5,
4,3,2,1,4,3,2,1,3,2,1,8,5,6,7,8,4,3,2,1,6,7,8,1,
3,4,5,6,4,5,6,7,5,6,7,8,6,7,8,1,3h[16:1],,3h[16:1],,
2/4,5,6,7,2,3,4,5,8,7,6,5,1h[16:1],,1h[16:1],,1/5,8,7,6,
8,7,6,5,3,2,1,8,4h[16:1],,4h[16:1],,2/5,6,7,8,2,3,4,5,8,7,6,5,
{24}B6/B3,B7/B2,E8/E2,8x/1x,,,1/8,2/7,3/6,4/5,,,
{16}3/6,,4h[1:0]/5h[1:0],,,,1/8,,2b/7b,,6,,3/5,,2,4,1-5[15:2],8,3-8[15:2],,
1x,,3x,,6,,5,,4/7,,3,4,2-5[15:2],5,1-6[15:2],,2x,,1x,,
3,,4,,2/5,,1,7,3-7[15:2],5,1-5[15:2],,3x,,1x,,
{24}E8,E1,E2,E3,E4,E5,E6,E7,E8,E1,E2,,
{12}3xh[12:1],4xh[12:1],5xh[12:1],6xh[12:1],7xh[12:1],8xh[12:1],
{32}1b,2,3,4,,,1b,2,3,4,,,1b,2,3,4,Cf,,,,,,,,
7b,6,5,4,,,7b,6,5,4,,,7b,6,5,4,Cf,,,,
{16},,1,8,1,8,1,8,1,8,
{32}2b,3,4,,,,3b/8h[32:3],4,5,,,,7b,6,5,,,,6b/1h[32:3],5,4,,,,
{16}2h[64:1],3h[64:1],2h[64:1],3h[64:1],1-5[15:2]b,,2,,1/8,,7,,
{24}6,7,6,7,6,7,6,7,6,7,6xz2[17.1#16:3]*z2[17.1#16:3],,
(141)
{1},,
(211.5)
{1}Ch[4:1],,Ch[4:1],,
2z6[8:17]*z6[8:17]/Ch[4:1],,Ch[4:1],,
{16}4,5,4,5,4,5,4,5,4,5,4,5,4,5,4,5,3,6,3,6,3,6,3,6,3,6,3,6,3,6,3,6,
2,7,2,7,2,7,2,7,2,7,2,7,2,7,2,7,1,8,1,8,1,8,1,8,1,8,1,8,1s5[6:1]b,8,1,8,
1xh[32:1],,,,
{4},,,,,,,5w1[8:12],,,,,,,,Ch[8:12],,,,,,
{16}8-3[6:1]*-5[6:1],,,,8,,,,
4b^2[6:1],,5,,4/6,,7,,1,8,1,,3/4,,2,,
6v8[6:1],,4,,3,,2,,1^4[6:1],7,1,,5h[8:1],,,,
6v8[6:1],,4,,3,,2,,1^4[6:1],7,1,,5h[8:1],,,,
6v8[6:1]b,,4,,3,,2,,1^4[6:1]b,7,1,,5h[8:1],,,,
4x/6x,,5/7,,8,1,8,,1^6[6:1],2,3,4,1,,3,,
2/5,,4,,4,,2/5,,3h[1:0],,3h[1:0],,5,5,5,5,5b-1[8:1]b,,,,
2b-5[8:1]b,,,,8b-4[8:1]b,,,,2,,
{24}1b-5[8:1]b,8,7,6,5,4,3,Cf,,
{16},,,,2h[8:1],,1,2,8,2,7,2,
6x,5,4,3,1x,8,7,6,2x,1,8,7,4x,3,2,1,
7,8,7,8,6,1,6,1,5,4,5,4,1,2,1,2,8,,8,,3/7,,
6,4,5-2[6:1],3,6,,7h[8:1],,,,8x,,8x,,1x/7x,,3x,4x,,4x,3x,,5xh[8:1],,,,
1x-5[8:13]b,,,,3,7,3,7,3,7,3,7,3,7,3,7,2,6,2,6,2,6,2,6,2,6,2,6,1xb,,,,
7-4[15:2],,8,,1/7,,2,,3V51[4:1],4,3,,5,,6,,
7-5[15:2],,1,,7-1[15:2],,3,,7,,2,,3/8,,7,,
2/6^1[6:1],3,4,5,6,,4,,2-4[15:2],1,2,,8,,7,,
6b,5,4,3,2,1,8,7,4b/6,3,2,1,7,6,5,4,
2b,3,2,3,1b,8,1,8,6b,7,6,7,5b,,4,,
{24}3b-5[15:2]b/6b-4[15:2],2/7,1/8,,,,
{16}3b/6b,,,,2b/7,,1/8b,,,,3/6,,
4,5,4,5,4,5,4,5,4,5,4,5,4,5,4,5,
4,5,3,6,4,5,3,6,4,5,3,6,4,5,3,6,
4,4,4,4,4,4,4,4,4,4,4,4,4,4,4,4,
4,3,2,1,8z4[6:1],7,6,5,4,,,,8b,,,,
2-6[15:2],,5-1[15:2],,2,,5,,
3,,7,,2^5[6:1],4,2,,6,,7,,8,,3,,
{32}4/5,6,7,8,1,2,3,4,
{16}1/5,,,,7b/E5f/B5,,,,3b/E1f/B1,,,,5b/Cf,,5b,,,,2b/8b,,,,
{24}3,4,5,6,7,8,1/5,2/6,3/7,4b/8b,1,2,3,4,5,6b/4b,7/3,8/2,1w5[10:1]b,,,
1xb<1[16:13]b,Cf,,,,,,,,,,,,,,,,,,,,,,,
{16}C,,,,,,,,A6,E6,E5,A4,B7,C,B3,A3,
8bh[8:1],,,,3/4-8[6:1],,,,6,6,,7,7,,1/8x,,
5h[16:1]/6h[16:1],,5h[16:1]/6h[16:1],,4x/7,,
5h[16:1]/6h[16:1],,5h[16:1]/6h[16:1],,4/7x,,
{24}3,2,1,5,6,7,1s5[15:2]/8z4[15:2]b,,,,,,
{16}1/8,,,,3,4x,,4,3x,,3/4,,5,4,6,5,7-4[8:1],,4V61[4:1],,
7,,3,,2,,,,{24}1x/2x,3/8,4/7,5/6,,,
{16}5xh[8:1]/6xh[8:1],,,,4,5h[8:1],,3,7h[8:1],,2,,
{32}1/6,5,4,,,,1/6,5,4,,,,1/6,5,4,,
{16}2,8,1,7,1,2,3,4,6,5,7,5,8h[64:1],,8h[64:1],,
{32}3,4,5,,,,,,3/7,,,,6,5,4,,
{16}1,1,1,1,1,1,1,1,1,2,3,4,5,6,7,1/8,,,,,,,,,
2>8[8:22]/7<1[8:22],,,,,,,,,,,,,,,,,,,,,,,,,,,,,,,,,,,,,,,,,,,,,,,,,,,,,,
2,3,4,5,7,6,5,4,
{32}3/B1,C,B5,
E
