&title=華が散れども
&artist=KAGAMI Ⅱ WORKs
&first=0.03
&des=カザリア
&lv_5=13+
&inote_5=(210)
{1},
{8}2-5[8:1],,8,,6,74,,3-8[8:1],
{8},4,5^8[8:1],,5^2[8:1],,5,,
{8}8-4[8:1],,1,,3,25,,6^1[8:1],
{8},4,2-4[8:1],,2-6[8:1],,2,,
{8}1-5[8:1],,8,,6,74,,3-8[8:1],
{8},4,5^8[8:1],,5^2[8:1],,5,,
{8}7,8,5,4,8,1,4,3,
{8}1,2,3x/8x,4x/7x,6x-2[8:1]/5x-1[8:1],,5b/6b,,
{8}8bh[4:3]/3b,,3,,2,,1,7,
{8}2,6,3<7<3[2:1],,7,,1,,
{8}8-4[8:1],,1,,2,,3,4,
{8}2,5,1-4[8:1],,1x-6[8:1],,1x,,
{8}3v8[8:1]/7-4[8:1],,37,,2-5[8:1],1-6[8:1],2,1,
{8},3,2-6[8:1]/5,,2/5-8[8:1],,5/1-5[8:1],,
{8}1/7^4[8:1],,78,,1-5[8:1],2-4[8:1],1,2,
{8},6,47,,8bw4[8:1],,8b,,
{8}2bh[4:3]/6b,,6,,7,,8,1,
{8}7,2,6V42V46[2:1],,2,,8,,
{8}1-5[8:1],,8,,7,,6,5,
{8}7,4,8^5[8:1],,8x^3[8:1],,8x,,
{8}8-4[8:1]/5-1[8:1],,58,,{16}2,,3,4,3,,2/5^8[8:1],,
{8},2,1-5[8:1],,81,7,6-2[8:1],,
{8}4-1[8:1]*-8[8:1]/6,,4,,{16}7,,6,5,6,,7/4^1[8:1],,
{8},7,8,,1b/7b,2b/6b,3b^8[4:1]/5b,,
{4}8b<4[4:1],4>8[4:1],8,{8}7,5,
{8}6,4,5-2[8:1]*-8[8:1],,5,,37,,
{8}4-2[8:1]/6,,5-7[8:1],,1-5[8:1],1,8-4[8:1],8,
{8},3,25,,{16}6,,3,5,2,,,,
{4}1>5[4:1],5<1[4:1],1,{8}2,4,
{8}3,5,4-7[8:1]*-1[8:1],,4,,{16}62,,3,4,
{8}3qq8[4:3],,,5,5,,,6,
{4}6^3[4:1],3^8[4:1],8^5[4:1],5V31<1<4[8:11],
{1}Cf,
{4},,1b^4[8:1]*^6[8:1],1b,
{8}5b-1[8:1],,6,7,8-4[8:1],1,8,,
{8}2-5[8:1]/5-1[8:1],,25,,8^5[4:1],,5^2[4:1],,
{4}2^7[4:1],7^4[4:1],4>8[4:1],8<4[4:1],
{4}4w8[8:1],,2^4[8:1],2/7^5[8:1],
{8}1-5[8:1]/7,,1,8,7-5[8:1],8,7-3[8:1],,
{4}7^4[8:1],7-2[8:1],7-4[8:1],7,
{16}1,,2,4,3,,7,5,6,,3,4,2,,6,5,
{16}8bw4[8:1],,,,8,,,,26,,5,3,5,3,5,3,
{8}4b-8[8:1],,3,2,1-5[8:1],8,1,,
{8}7-4[8:1]/4-8[8:1],,74,,1^4[4:1],,4^7[4:1],,
{4}7^2[4:1],2^5[4:1],5<1[4:1],1>5[4:1],
{4}5w1[8:1],,7^5[8:1],7/2^4[8:1],
{8}8-4[8:1]/2,,8,1,2-4[8:1],1,2-6[8:1],,
{4}2^5[8:1],2-7[8:1],2-5[8:1],2,
{8}6-1[8:1],6,2-5[8:1],2,7-4[8:1],7,3-8[8:1],3,
{8}5,6,47,3,25,7,48,2,
{8}1b-5[8:1]/5b,,6-1[8:1],,4-8[8:1],,7,6^3[8:1],
{8},,1-5[8:1],,18,,7,46,
{8},3,25,,6,7,8^5[8:1],,
{8}8/1^4[8:1],,8-4[8:1]/1,,1-5[8:1]/8,,18,7^4[8:1],
{8},7,1-6[8:1],,4-7[8:1],4,8-3[8:1],8,
{8},6,47,,3-8[8:1],3,7-4[8:1],7,
{8},3,25,6,7,1,8,2hb[4:1],
{8},6,7b/5b,,1b/8b,{16}3,4,2,5,1,6,
{4}8b^3[8:1],7h[4:1],4-8[8:1],6h[4:1],
{4}2^5[8:1],8-4[8:1],1-5[8:1],7^4[8:1],
{4}8b-3[8:1]*-5[8:1],8b,1b-4[8:1]*-6[8:1],1b,
{8}3,2,8,7,{16}6hx[16:3],,,4hx[16:3],,,7x,,
{8}7,6,4,4h[4:1],6,5,3,3h[4:1],
{8}5,4,3,2,1,28,3qq6[2:3]/7qq2[2:3],,
{1}3b/7b,
{1},
{1}8<1[1:6],
{1},
{1},
{1},
{1},
{1},
{2}8h[2:1],1h[2:1],
{8}8b,2b/7b,,,,,,,
{8}6b^3[8:1],,3,2,1-5[8:1],8,1,,
{8}7-4[8:1]/4-8[8:1],,74,,1^4[4:1],,4^7[4:1],,
{4}7^2[4:1],2^5[4:1],5V71[4:1],1V35[4:1],
{4}5w1[8:1],,7^5[8:1],7/2^4[8:1],
{8}8-4[8:1]/2,,8,1,2-4[8:1],1,2-6[8:1],,
{4}2^5[8:1],2-7[8:1],2-5[8:1],2,
{8}6-1[8:1],6,2-5[8:1],2,7-4[8:1],7,3-8[8:1],3,
{8}5,6,47,3,1b^4b[8:1]/5b^8b[8:1],,1b/5b,,
{8}1b-5[8:1],1,2-4[8:1],2,8-6[8:1],8,5p1[4:1],,
{4}1p5[4:1],5p1[4:1],1,8,
{16}7,,6,5,6,,47,,3-5[8:1],,5,,3,,,,
{8}48,37,26,15,8-3[8:1]/4-7[8:1],,84,,
{8}6,5,3,2,1-5[8:1],2,7^4[8:1],8,
{8}2,1,8^3[8:1],,8^5[8:1],,8,,
{8}4,35,2-4[8:1]/6-4[8:1],,2-8[8:1]/6-8[8:1],,26,,
{8}26,3,47,6,15,3,4b/8b<4[4:1],,
{4}4b>8[4:1],8b<4[4:1],4b>8[4:1],8b<4[4:1],
{4}4b>8[4:1],8b<4[4:1],4b>8[4:1],8b,
{16}2x,,3x,4,3,,2x/5x,,6x,4,7,,3x/5x,,2x,4x,
{16}3x,4x,2x,4x,3x,5,4,6,5,7,2,5,3,6,4,7,
{4}5b>5b[2:1],Cf,5b>5b[2:1],Cf,
{4}5b>5b[2:1],Cf,5b>5b[2:1],Cf,
{4}5b>5b[2:1],Cf,5b,Cf,
{16}6,5,6,3,4,3,7,5,6,2,4,3,6,5,7,4,
{8}8b,,7,,56,56,,3,
{8},24,24,,1-5[8:1],,18,,
{8}7,,6,,57,57,,4,
{8},35,35,,6-8[8:1],4,2,,
{8}1,,2,,43,43,,6,
{8},75,75,,8-4[8:1],,81,,
{8}2,3,4,5,3,4,5,6,
{8}4,5,6,7,(190){16}8x,,,,8x,,,,
(180){8}1bx/7bx,,2bx/4bx,,5bx/6bx,4bx/7bx,,2bx/8bx,
{8},3bx/4bx,2bx/5bx,,,,,,
E
