&title=Chemical Cookie
&artist=YUC'e
&first=0
&des=Yuzukeai
&lv_5=14
&inote_5=(180)
{1},,,
{8}8b-5[4:1],,,,,,{16}4V61[2:1],,3,,
2,,,,3,,,,4h[4:1],,,,8V24[2:1],,7,,
6,,,,7,,,,8h[4:1],,,,1V73[2:1],,2,,
3,,,,2,,,,1,,,,4v2[4:1],,,,
2<7[4:1],,,,,,,,,,,,6v4[4:1],,5,,
4v1[4:1],,,,3,,,,2h[8:1],,,,3pp5[4:1],,4,,
5p8[4:1],,,,6,,,,7h[4:1],,,,1pp3[4:1],,2,,
3pp5[4:1],,,,2,,,,1,,,,7>2[4:1],,,,
2v4[4:1],,,,,,,,3,,,,2,,2,,
21,,,,8,,,,73,,,,3h[8:1],,4,,
2-5[4:1],,,,4,,,,6,,,,7,,7,,
78,,,,1,,,,26,,,,6h[8:1],,5,,
7-4[4:1]/5,,,,5,,,,3,,,,2,,2,,
3h[8:1]/1,,,,3h[8:1]/8,,,,3h[8:1]/7,,,,6h[8:1]/8,,,,
6h[8:1]/1,,,,6h[8:1]/2,,,,6h[8:1]/3,,,,6h[8:1]/4qq5[8:6],,,,
5pp5[2:1],,,,,,,,,,,,,,,,
5pp5[2:1]*qq5[2:1],,,,,,,,,,,,,,,,
2-6[4:1]/4<2[2:1],,,,,,,,,,,,5-8[4:1],,,,
8>5[8:3],,,,,,,,,,,,7b,,,,
2-6[4:1]/4<2[2:1],,,,,,,,,,,,5-8[4:1],,,,
8>5[8:3],,,,,,,,,,7b,,7b,,,,
6/5b,,4/7,,38,,1/2b,,45,,36,,27,,18,,
3/4b,,25,,16,,7/8b,,45,,36,,27,,18,,
2b,8,2,8,3,7,3,7,{32}4b,5,6,7,8,1,2,3,4,5,6,7,8,1,2,3,
4h[32:1],,,,,,,,3h[32:1],,,,,,,,2h[32:1],,,,,,,,1b-5[8:1],,,,,,,,
{16}1/7V51[4:1],,,,,,,,2V48[4:1],,,,,,,,
{32}7,6,5,,,,,,2-6[8:1]/7,6,5,,,,,,2,,,,,7,,7v4[8:1],,,,,1,,,,
7/3V17[4:1],,,,,,,,,,,,,,,,6V82[4:1],,,,,,,,,,,,,,,,
3,4,5,,,,,,7v4[8:1]/8,1,2,,,,,,74,,,,,,2,,5,,3,,6,,4,,
{16}7b,,7,5,6,,3,4,2,,6,6,,3,8,3,
{32}8-5[8:1],,,,,,,,8-3[8:1]/2,,,,,,,,86,,,,,,7,,7,,,,26,,,,
1,,,,7,,5,,6,,,,3,,4,,2,,,,
{24}5,6,7,
{16}3,1,3,1,
{16}2b,,2,,8,,8,,1w5[8:1],,,,1b,,,,
3-6[8:1]/7-2[8:1],,,,37,,,,48,,,37,,,26,,
1/5,8,7,6,51,4,3,2,15,,,7,3,,26,,
1-5[8:1]/5-1[8:1],,,,15,,,,37,,,26,,,15,,
84,3,2,1,8/4p3[8:4],7,6,5,4,,,,,,,,
6-1[8:1],,,,2v5[8:1]/6,,,,2/5,,,6,,,37,,
8,7,6,5,4/1-6[8:1],2,3,4,5-1[8:1]/1,,,,58,,,,
8,1,7,2,8,1,7,2,6,3,7,2,6,3,5,4,
6b/3,,,,7b,,,,8bw4[8:1],,,,8b,,,,
2pp8[2:1],,,,,,,,7h[32:1],,,,,,,,
2pp7[2:1],,,,,,,,6h[32:1],,,,,,,,
2pp6[2:1],,,,,,,,6pp3[2:1],,,,,,,,
5h[4:1],,,,,,,,5<8[4:1],,,,,,,,
1,,2,,3,,4,,5,,,,3h[4:1],,,,
8,,7,,6,,5,,4,,,,6h[4:1],,,,
1,,2,,3,,4,,5,,,,56,,,,
7p2[8:1]/2v7[8:1],,,,,,,,,,,,,,,,
6-2[4:1]/2<4[2:1],,,,,,,,,,,,,,,,
8-5[4:1]/5>8[2:1],,,,,,,,,,,,6b,,,,
6-2[4:1]/2<4[2:1],,,,,,,,,,,,,,,,
8-5[4:1]/5>8[2:1],,,,,,,,,,,,6b,,,,
8b/4b,,37,,26,,1b/5b,,84,,37,,26,,15,,
8b/4b,,37,,26,,1b/5b,,84,,37,,26,,15,,
3,5,3,5,4,6,4,6,5,7,5,7,{32}4,3,2,1,8,7,6,5,
4w8[2:1],,,,,,,,,,,,,,,,,,,,,,,,,,,,,,,,
{16}7,,6,,5,,3,2,1,,4,,41,5,6,7,
{64}1b-4[8:1],8-5[8:1]*-5[8:1],,,{16},,,8/1,,,,2,,,7,7v4[8:1],,4V68[4:1],,
{32}7,,,,,,,,,,,,,,,,2pp8[8:2],,,,,,,,,,,,,,,,
7,6,5,,,,,,2-6[8:1],3,4,,,,,,28,,,,,,8,,4,,7,,3,,6,,
{16}2b,,7,1,5,,2,8,4,,7,57,,2,4,2,
8-5[8:1]*-3[8:1],,,,8-4[8:1],,,,8,,,2,2,,37,,
{32}8,,,,7,,1,,5,,,,2,,8,,4,,,,
{24}4,3,2,
{16}6,8,6,8,
{16}6b,,6,,73,,73,,8w4[8:1]/4,,,,8b,,,,
6-3[8:1]/2-7[8:1],,,,62,,,,5b/1b,,,62,,,73,,
8/4<8[4:1],1,2,3,4/8q5[4:1],1,2,3,4b,,,2,2,,1,,
1-4[8:1]/5-8[8:1],,,,15,,,,7b/3b,,,26,,,15,,
8<4[4:1]/4,3,2,1,8/4pp7[8:3],3,2,1,8-3[8:1],,,,8,,,,
8-5[8:1]/4-1[8:1],,,,84,,,,2b/6b,,,37,,,48,,
51,6,7,8,1,82,73,64,5b-8[8:1]*-2[8:1],,,,5,,,,
4b,5,2,7,3b,6,1,8,{32}2b,,7,,1,,8,,2b,3,4,5,6,7,8,1,
{16}2b/6b,,,,7b,,,,8bw4[8:1],,,,8b,,,,
{64}2bpp8[1:1]*pp8[1:1],6pp4[1:1],,,{16},,,,,,,,,,,,,,,,
,E
