&title=Cybernecia Catharsis
&artist=Tanchiky
&first=0
&des=KoishiKnight
&freemsg=Tanchiky
&wholebpm=184
&amsg_first=
&tap_ofs=
&hold_ofs=
&slide_ofs=
&break_ofs=
&des_1=KoishiKnight
&des_2=KoishiKnight
&des_3=KoishiKnight
&des_4=KoishiKnight
&des_5=KoishiKnight
&lv_1=4
&lv_2=6
&lv_3=8+
&lv_4=11
&lv_5=13
&inote_1=(184)
{4},{16},
{4}3h[1:1],,,,,,,,
{4}6h[1:1],,,,,,,,
{4}2h[1:1],,,,,,,,
{4}7h[1:1],,,,,,,6b,
{4}4h[1:1],,,,,,,,3h[1:1],,,,,,,,
{4}2h[1:1],,,,,,,,
{4}1,,,,,,1,,
{4}4h[1:1],,,,,,,,
{4}5h[1:1],,,,,,,,
{4}1/2,,,,7/8,,,,
{4}5,,,,5,,,,
{4}1-6[4:5],,,,
{4},,,,
{4}7-4[4:5],,,,
{4},,,,
{4}5-2[4:5],,,,
{4},,,,
{4}3-8[4:5],,,,,,,,
{4}3h[2:1],,,,6h[2:1],,,,
{4}1^4[4:5],,,,
,,,,
{4}3h[2:1],,,,
{4}4h[2:1],,,,
{4}5V31[4:5],,,,
{4},,,,
{4}1,,,,2,,,,3,,,,4,,,,
{4}5,,,,6,,,,7,,,,8,,,,
{4}1-5[1:1],,,,,,,,
{4}8-4[1:1],,,,,,,,
{4}2^5[1:1],,,,,,,,
{4}7^4[1:1],,,,,,,,
{4}1^4[1:1],,,,,,,,3-8[1:1],,,,,,,,
{4}1,,1,,8,,8,,
{4}1-4[2:1],,,,8-5[2:1],,,,
{4}1,,,,2,,,,3,,,,4,,,,
{4}2,,7,,1/8,,,,2q7[2:1],,,,
{4}5/6,,3/4,,
{4}3^8[2:1],,,,6^1[2:1],,,,
{4}7h[4:1],,2h[4:1],,5/4,,,,
{4}2-5[2:1],,,,8-4[2:1],,,,
{4}1-5[2:1],,,,7-3[2:1],,,,
{4}8,,,,7,,,,6,,,,5,,,,
{4}4,,,,3,,,,2,,,,1,,,,
{4}8b-4[4:5],,,,,,,,
{4}4,,,,4,,,,
{4}1-5[4:5],,,,,,,,
{4}5,,,,5,,,,
{1},,,,E
&inote_2=(184)
{4},{16},
{4}3h[1:1],,,,4,,,,
{4}6h[1:1],,,,5,,,,
{4}2h[1:1],,,,1,,,,
{4}7h[1:1],,,,8,,,6b,
{4}4h[1:1],,,,,,,,3h[1:1],,,,,,,,
{4}2h[1:1],,,,,,,,
{4}8,,7,,6,,5,,
{4}4h[1:1],,,,6,,,,
{4}5h[1:1],,,,3,,,,
{4}1h[2:1]/2h[2:1],,,,7h[2:1]/8h[2:1],,,,
{4}3,,4,,5,,6,,
{4}1-6[4:5]/2-5[4:5],,,,
{4},,,,
{4}7-4[4:5]/8-3[4:5],,,,
{4},,,,
{4}5-2[4:5]/6-1[4:5],,,,
{4},,,,
{4}3-8[4:5]/4-7[4:5],,,,,,,,
{4}3h[2:1],,4,,6h[2:1],,5,,
{4}1^4[4:5]/8^5[4:5],,,,
,,,,
{4}3h[2:1],,,,
{4}4h[2:1],,,,
{4}5V31[4:5]*V71[4:5],,,,
{4},,,,
{4}1,,1,,2,,2,,3,,3,,4,,4,,
{4}5,,5,,6,,6,,7,,7,,8,,8,,
{4}1-5[1:1],,,,,,,,
{4}8-4[1:1],,,,,,,,
{4}2^5[1:1],,,,,,,,
{4}7^4[1:1],,,,,,,,
{4}1^4[2:1],,,,8^5[2:1],,,,3-8[2:1],,,,6-1[2:1],,,,
{4}1,1,1,,8,8,8,,
{4}1-4[2:1],,,,8-5[2:1],,,,
{4}1b,,2,,3,,4,,5,,6,,7,,8,,
{4}2h[4:1],,7h[4:1],,1/8,,1/8,,2q7[2:1],,,,
{4}5h[4:1]/6h[4:1],,3h[4:1]/4h[4:1],,
{4}3^8[2:1],,,,6^1[2:1],,,,
{4}7h[4:1],,2h[4:1],,5/4,,4/5,,
{4}3h[4:1],,6h[4:1],,8-4[2:1],,,,
{4}1-5[2:1],,,,7-3[2:1],,,,
{4}8,,7,,6,,5,,4,,3,,2,,1,,
{4}8,,7,,6,,5,,4,,3,,2,,1,,
{4}8b-4[4:5],,,,,,,,
{4}1,,2,,3,,4,,
{4}1-5[4:5],,,,,,,,
{4}5,,6,,7,,8,,
{1},,,,E
&inote_3=(184)
{4},{16},
{4}2h[2:3],,8,,6,5,4,,
{4}7h[2:3],,1,,3,4,5,,
{4}1h[2:3],,3,,5,6,7,,
{4}8h[2:3],,6,,4,3,2,1b,
{4}6h[4:7],8,,1,,2,,3h[1:2],,1,,8,,7,7,7,
{4}2-5[2:1]/6-1[2:1],,,,
{4}7-4[2:1]/3-8[2:1],,,,
{4}2^5[2:1],8,,7^4[2:1],1,2,3,4,
{4}8b/1b,
{4}2h[2:3],,8,,6,5,4,,
{4}7h[2:3],,1,,3,4,5,
{4}2-5[4:1],,8-4[4:1],,1-5[4:1],,7-4[4:1],,
{4}2h[1:1],3,4,5,6h[2:1],8,2,,
{4}3h[2:1],4,5,,
{4}6h[2:1],5,4,,
{4}1h[2:1],3,5,,
{4}8h[4:3],6,4,2,
{4}1-4[4:1],8,6,,
{4}5-8[4:1],4,2,,
{4}1,2,3,4,8,7,6,5,
{4}3h[2:1],4,2,,6h[2:1],5,7,,
{4}1^4[4:1]*^6[4:1],,,,
{4}8^5[4:1]*^3[4:1],,,,
{4}3h[2:1],4,4,6h[2:1],
{4}5,5,1h[2:1],7,
{4}8pp3[4:5]*qq5[4:5],,,,
{4},,,,
{4}1,1,2,2,3,3,4,4,5,5,6,6,7,7,8,8,
{4}1,1,2,2,3,3,4,4,5,5,6,6,7,7,8,8,
{4}1s5[1:1],,,,,,,,
{4}8z4[1:1],,,,,,,,
{4}2q5[1:1],,,,,,,,
{4}7p4[1:1],,,,,,,,
{4}1^4[4:3],,6,7,8^5[4:3],,3,2,1,,6h[4:3],7,8,2h[2:1],1,8,
{4}1h[1:1],8,7,6,5h[1:1],4,3,2,
{4}1-6[4:1],,7-4[4:1],,2-5[4:1],,8-3[4:1],,
{4}1b,1,2,2,7,6,5,4,1,2,3,4,7,8,1h[4:1],,
{4}3h[4:1],7,6h[4:1],2,1/8,2/7,3/6,4,5<4[2:1],,,,
{4}1/2,3/8,7/8,6/1,
{4}3^8[4:1],,6^1[4:1],,
{4}3,4,5,6,
{4}7h[4:1],5,2h[4:1],4,5/6,4/5,4/3,,
{4}1h[2:1],5,7h[2:1],4,2-5[4:1],,6-1[4:1],,
{4}4-8[4:1],,7-3[4:1],,2-6[4:1],,5b,,
{4}8,8,7,7,6,6,5,5,4,4,3,3,2,2,1,1,
{4}8,8,7,7,6,6,5,5,4,4,3,3,2,2,1,1,
{4}8bq5[4:5]*p3[4:5],,,,,,,,
{4}1,2,3,4,5,6,7,8,
{4}1v4[4:5]*v6[4:5],,,,,,,,
{4}8,7,6,5,4,3,2,1,
{1},,,,E
&inote_4=(184)
{4},{16},
{8}2/5h[1:1],,3qq6[2:1],3,,,,,,
,,7,8,7,8,,4h[1:1]/7,,6pp3[2:1],6,,,,,,,,2,1,2,1,,
1/6h[1:1],,2q5[2:1],2,,,,,,,,5,4,5,4,,8/3h[1:1],,7p4[2:1],7,,,,,,,,,
{32}1,,8,,1,,8,,{8}1b,,
7-4[8:1],,1,2-5[8:1],,8,7,,6h[4:1],,5,3h[8:3],,5,4,,2^5[8:1],,8,7^4[8:1],,1,2,,3,4,3,7,6/8,2,1/3,,7h[2:1],,
{16}3,,4,,{8}5^2[8:1],,,,4^7[8:1],,,,5^2[8:1],,,,
7h[4:1],,1,,2h[4:1],8,8,,3,3,6,4,5>6[4:1],
{16},,,,,,{8}3b,
,7p4[2:1],,,,1,,2,,3qq5[2:1],,,,7,,6h[4:1],,4,3h[4:1],,5,6,,7,8,7,3,2/4,6,5/7,,
{4}1h[4:1]/6h[4:1],,3h[4:1]/8h[4:1],,4h[4:1]/2h[4:1],,5h[4:1]/7h[4:1],,
2-5[8:1]/6-1[8:1],,3-8[8:1]/7-4[8:1],,1pp8[4:1]/5pp4[4:1],,{8},,
{16}4,5,4,5,4,,,,,,,,7-3[8:1],,,,2-6[8:1],,,,4-8[8:1],,,,,,,,
1-5[8:1],,,,6-2[8:1],,,,4-8[8:1],,,,,,,,7-3[8:1],,,,2-6[8:1],,,,5-1[8:1],,,,4-8[8:1],,
,,6-2[8:1],,,,4,,,,2,,3,,4,,5,,6-1[8:1],,,,,,,,7,,6,,5,,4,,3-8[8:1],,,,,,,,
5/6,,6,,5/6,,,,3/4,,3,,3/4,,,,5/7,,7,,5/7,,
,,2-6[8:1]/4,,,,8,,,,
{8}7h[4:1],{16},,6h[4:1],,,,5^8[8:1],,,,,,,,{8}2h[4:1],{16},,3h[4:1],,,,4^1[8:1],,,,,,6,,6h[8:3],,,,,,2,,2,,1,,1,,8,,8,,7,,7h[4:1],,,,5-2[8:1],,,,
{16},,,,
1/2,,2,,2/4,,2,,2/8,,,,7/8,,7,,7/5,,7,,7/1,,,,
2-5[8:1],,,,6-1[8:1],,,,3h[4:1],,,,1,,3,,8,,3,,7,,3,,6,,3,,5,,3,,4-8[8:1],,,,3,,,,
6,,5,,6,,3,,4,,3,,7,,8,,7,,2,,1,,2,,7b,,5b,,3b,,1b,,
3,,4,,3,,6,,5,,6,,2,,1,,2,,7,,8,,7,,2-5[8:1],,,,1,,,,
7,,5,,7,,2,,4,,2,,8,,6,,8,,1,,3,,1,,8b,,2b,,4b,,6b,,
2,,4,,2,,7,,5,,7,,1,,3,,1,,8,,6,,8,,2h[4:1],,,,3h[4:1],,,,4>5[1:7],,,,,,,,
{2},
{1},,,,,,
{8},,,,,,,,
4/5,,,,2,6,4>7[4:1],,5,,,,
7,3,5<2[4:1],,4,,,3,,,6,6h[4:1],,1,6,2,6,3,6,4,
{16}
5/7,,6,,2,,4,,3,,,,2/4,,3,,7,,5,,6,,4,,5,,3,,7,,4,,
1/8,,1/8,,2/7,,2/7,,3/6,,3/6,,4/5,,4/5,,4h[4:1]/5h[4:1],,,,
{8},,1b/8b,,2b/7b,,3b/6b,,5^2[8:1],5,,,
4-7[8:1],4,6-1[8:1],,8-3[8:1],,2-5[8:1],,4,,
7^4[8:1],,3^8[8:1],,6-1[8:1],,2-5[8:1],,8-5[8:1],,
1-4[8:1],,7-2[8:1],,,,
1-6[8:1],,5-2[8:1],,3-8[8:1],,7-3[8:1],,
8-4[8:1],,1-5[8:1],,2,,3p6[2:1],,3h[4:3],,,,
,,1-6[8:1],,3-8[8:1],,5-2[8:1],,7,,
1^6[8:1],1,,,
8^3[8:1],8,,,4-7[8:1],4,6-1[8:1],,2-5[8:1],,8-3[8:1],,4,,
5-1[8:1],,4-8[8:1],,7-3[8:1],,2-6[8:1],,1-5[8:1],,
8-4[8:1],,7,,,,
6^1[8:1],,2^5[8:1],,7-4[8:1],,3-8[8:1],,
5-2[8:1],,7-4[8:1],,1,,
2,{16},4,{8}3h[4:3],,,,,,7,
{16},5,6h[4:1],,,,3,,,,{32}4,,5,,4,,5,,{16}4b,,,,
{16}
7,,5,,6,,2,,4,,3,,8,,6,,7,,1,,3,,2,,7b,,5b,,3b,,1b,,
2,,4,,3,,7,,5,,6,,1,,3,,2,,8,,6,,7,,2-5[8:1],,,,1,,,,
7,,3,,5,,2,,6,,4,,8,,4,,6,,1,,5,,3,,8b,,2b,,4b,,6b,,
2,,6,,4,,7,,3,,5,,1,,5,,3,,8,,4,,6,,2-5[8:1],,,,1,,,,
{8}4/7h[1:1],,3qq5[2:1],3,,,,,,
,,3,1,3,1,,2h[1:1]/5,,6pp4[2:1],6,,,,,,,,6,8,6,8,,
5/7h[1:1],,4qq5[2:1],4,,,,,,,,2,8,2,8,,4/2h[1:1],,5pp4[2:1],5,,,,,,,,,
7,1,7,1,
{1},,,,E
&inote_5=(184)
{4},{16},
{8}2/5,3,4,5,,4/7,6,5,4,3/8,,
2,5,3,2,1,8,3,8,1,6,1,7,2,6,3,5,4,8,1,2,3,
4/7,6,5,4,,2/5,3,4,5,6/1,,1,2,8,3,7,4,8,4,5,1,5,2,6,4,7,3,5,
{32}1,2,3,4,5,6,7,8,{8}1b/5b,,
1,,5,6,,4,2,,6,6,5,6,,6,5,,8,,4,3,,5,7,,3,3,4,{16}7,7,{8}5,{16}2,2,{8}4,,7,,
{16}4pp1[4:1],5,4,5,{8}4,,,,7p3[8:1]*q3[8:1],,,,2q6[8:1]*p6[8:1],,,,
8,,1,,8,8,7,,1,1,2,1,8,
{16}2,3,4,5,6,7,{8}8b/1b,
,2,,,8,7,,4,4,3,,,5,6,,2h[4:1],,8,7h[4:1],,1,2,,7,7,8,{16}1,1,{8}3,{16}8,8,{8}6,,
{4}1v3[8:1]/5v7[8:1],,3p7[8:1]/7p3[8:1],,7q4[8:1]/3q8[8:1],,8qq6[8:1]/4qq2[8:1],,
7-3[8:1]/1,7/2-5[8:1],2/6-1[8:1],3-7[8:1]/6,8-4[8:1]/3,8-6[8:1]/1-5[8:1],{8}8/1,,
{16}1s5[4:1],8,2,7,1h[4:1],,,,,,,,6/4h[8:1],,5,,4h[8:1]/2,,3,,4^1[8:1]/7^4[8:1],,,,,,,,
2/5h[8:1],,3,,5h[8:1]/8,,7,,1^4[8:1]/5^8[8:1],,,,,,,,4h[8:1]/7,,6,,2/5h[8:1],,3,,4h[4:1]/8h[4:1],,,,,,
1,8,1w5[8:1],,,,1,,,,4/7,,6,,5/2,,3,,4/8-4[8:1]*v5[8:1],,,,8,,,,3/5,,2,,7/5,,6,,4/1v4[8:1]*v6[8:1],,,,1,,,,
2h[8:1]/6,,8,,7h[8:1]/3,,1,,3h[8:1]/6,,8,,2/7h[8:1],,4,,3/5h[8:1],,1,,4h[8:1]/6,,
8,,2-5[8:1]/7-4[8:1],,,,2/7,,,,
{32}8/2,3,4,5,{16},,1-4[8:1]*-6[8:1],,,,1,,,,,,8,,{32}1/7,6,5,4,{16},,8w4[8:1],,,,8,,,,,,1,,3h[4:1]/7h[4:1],,,,,,
8-5[8:1],,2-5[8:1],,8-4[8:1],,2-6[8:1],,8-3[8:1],,2-7[8:1],,8,,2,,,,8w4[8:1],,,,
{16}8,,,,
3h[8:1]/5,,5,,5-2[8:1]/7h[8:1],,5,,5,,,,4/6h[8:1],,4,,4-7[8:1]/2h[8:1],,4,,4,,,,
6-3[8:1],,,,6/2-7[8:1],,,,2/3,,,,8-4[8:1],,8,,1-5[8:1],,1,,7-3[8:1],,7,,2-6[8:1]/7,,2,,2/5-1[8:1],,5,,5/4w8[8:1],,,,4,,,,
8,,4,5,4,,1,,5,4,5,,8,,4,5,4,,1,,5,4,5,,1b/6b,,3b/8b,,2b/5b,,7b/4b,,
2,,6,5,6,,7,,3,4,3,,2,,6,5,6,,7,,3,4,3,,6^3[8:1],,,,3/6,,,,
1,,5,4,5,,8,,4,5,4,,1,,5,4,5,,8,,4,5,4,,3b/8b,,1b/6b,,7b/4b,,2b/5b,,
7,,3,4,3,,2,,6,5,6,,7,,3,4,3,,2,,6,5,6,,3^8[4:1],,,,8^5[4:1],,,,5s1[4:10],,,,,,,,
{2},
{1},
{8}7^4[2:1],,,,,,,,2^5[2:1],,,,,,,,
8p6[4:3],,,,,,,,1q3[4:3],,,,,,,,
7q5[2:1],,,,,,,,2p4[2:1],,,,,,,,
4/5,,,,{32}2/8,7,6,5,{8},3q1[4:1]/4<8[4:1],,3/4,,,,
{32}1/7,2,3,4,{8},5V31[4:1]/6V48[4:1],,5/6,,,7/2,,,5,8/2,,8,3/5,1,4/6,8,3/4,1,
{16}
5/7,,6,,{24}4,5,3,{16}4,,8,,,,3/5,,4,,{24}5,6,4,{16}5,,1,,2,,3,,4,,5,,6,,
1,8,2,7,1,8,3,6,2,7,4,5,3,6,4,5,3h[4:1]/6h[4:1],,,,
{8},,1^3[8:1]/6,,1-4[8:1]/7,,1-5[8:1]/8h[4:1],,1^3[8:1],7,1-4[8:1]/7h[4:1],,
1-5[8:1],6,1/8^6[8:1],,8-5[8:1]/1,,8-4[8:1]/2,,8/3,,
1^3[8:1]/7,,1-4[8:1]/8,8,7/1-5[8:1],7,6/1^3[8:1],6,5-8[8:1]/1-4[8:1],,
1V75[4:1]/5V31[4:1],,1/5,,,,
1h[4:1]/8^6[8:1],,8-5[8:1],{16}1,2,{8}3/8-4[8:1],,8^6[8:1]/3^1[8:1],,
8-5[8:1]/3-5[8:1],,8-4[8:1]/3-1[8:1],,8/3,,7,6,5h[4:3]/8^2[8:1],,8-3[8:1],,
8-4[8:1],,8^6[8:1],6,8-5[8:1]/1,,8-4[8:1]/2,,8/3,,1^3[8:1]/8,7,1-4[8:1]/7h[4:1],,
1-5[8:1],6,1^3[8:1]/6h[4:1],,1-4[8:1],5,1/8^6[8:1],,1/8-5[8:1],,2/8-4[8:1],,3/8,,
1^3[8:1]/7,,1-4[8:1]/8,8,7/1-5[8:1],7,6/1^3[8:1],6,5-8[8:1]/1-4[8:1],,
1V74[4:1]/5V38[4:1],,1/5,,,,
1h[4:1]/8^6[8:1],,8-5[8:1],{16}1,2,{8}3/8-4[8:1],,8^6[8:1]/3^1[8:1],,
8-5[8:1]/3-5[8:1],,8-4[8:1]/3-1[8:1],,8/3,,
1^3[8:1]/7,{16},8,7h[4:3]/1-4[8:1],,{8},1-5[8:1],,1^3[8:1],,1-4[8:1],
{16},7,6-8[8:1]/1-5[8:1],,,,1/6,,,,{32}8,7,6,5,4,3,2,1,{16}8b/4b,,,,
{16}
3/6,,7,8,7,,3/6,,2,1,2,,3/6,,7,8,7,,3/6,,2,1,2,,5b/7b,,2b/4b,,6b/8b,,1b/3b,,
2/7,,4,5,4,,2/7,,5,4,5,,2/7,,4,5,4,,2/7,,5,4,5,,3^6[8:1],,,,3/6,,,,
4/7,,6,5,6,,2/5,,3,4,3,,4/7,,6,5,6,,2/5,,3,4,3,,6b/8b,,1b/3b,,5b/7b,,2b/4b,,
3/6,,8,1,8,,3/6,,1,8,1,,3/6,,8,1,8,,3/6,,1,8,1,,2-5[8:1]/7-4[8:1],,,,2/7,,,,
{8}3/6,4,5,6,,2/5,3,4,5,6/1,,
4,3,5,2,6,1-5[8:1],7,1,8-4[8:1],2,8,1,8,2,7,3,6,4,5,6,7,
2/5,3,4,5,,4/7,6,5,4,3/8,,2,1,3,8,4,7-4[8:1],1,7,2-5[8:1],8,2,1,8,2,7,3,6,4,5,6,7/8,
{1},,,,E
