&title=月見夜ラビット
&artist=papiyon
&first=0.05
&des=Tane
&lv_1=4
&lv_2=5
&lv_3=8
&lv_4=11
&lv_5=13+
&inote_1=(240)
{1},
{8}4,,,,
,,,,{8},,,,
,,,,
{8}5,,,,
,,,,{8},,,,
,,,,
{8}3,,,,
,,,,{8},,,,
,,,,
{8}6,,,,
,,,,{8},,,,
,,,,
{8}3,,,,
,,,,{8},,,,
,,,,
{8}6,,,,
,,,,{8},,,,
,,,,
{8}2,,,,
,,,,{8},,,,
,,,,
{8}7,,,,
,,,,{8},,,,
,,,,
{8}6,,,,
,,,,{8},,,,
,,,,
{8}6,,,,
,,,,{8},,,,
,,,,
{8}7,,,,
,,,,{8},,,,
,,,,
{8}7,,,,
,,,,{8},,,,
,,,,
{8}3,,,,
,,,,{8},,,,
,,,,
{8}3,,,,
,,,,{8},,,,
,,,,
{8}2,,,,
,,,,{8},,,,
,,,,
{8}2,,,,
,,,,{8},,,,
,,,,
{8}6,,,,
,,,,{8},,,,
,,,,
{8}2,,,,
,,,,{8},,,,
,,,,
{8}7,,,,
,,,,{8},,,,
,,,,
{8}1,,,,
,,,,{8},,,,
,,,,
{8}3,,,,
,,,,{8},,,,
,,,,
{8}7,,,,
,,,,{8},,,,
,,,,
{8}2,,,,
,,,,{8},,,,
,,,,
{8}8,,,,
,,,,{8},,,,
,,,,
{8}4b,,,,
,,,,{8},,,,
,,,,
{8}8,,,,
,,,,{8},,,,
,,,,
{8}5,,,,
,,,,{8},,,,
,,,,
{8}1,,,,
,,,,{8},,,,
,,,,
{8}6,,,,
,,,,{8},,,,
,,,,
{8}8,,,,
,,,,{8},,,,
,,,,
{8}7,,,,
,,,,{8},,,,
,,,,
{8}8,,,,
,,,,{8},,,,
,,,,
{8}3,,,,
,,,,{8},,,,
,,,,
{8}1,,,,
,,,,{8},,,,
,,,,
{8}2,,,,
,,,,{8},,,,
,,,,
{8}5,,,,
,,,,{8},,,,
,,,,
{12}2,,,
,,,
,,,
,,,{12}2,,,,,,
,,,,,,
{12}7,,,
,,,
,,,
,,,{12}7,,,,,,
,,,,,,
{12}45,,,
,,,
,,,
,,,{12}45,,,
,,,
,,,
,,,
{2}4,,
{12}18,,,
,,,
,,,
,,,
{12}1,,,
,,,
,,,
,,,{12}2,,,,,,
,,,,,,
{12}7,,,
,,,
,,,
,,,{12}7,,,,,,
,,,,,,
{12}54,,,
,,,
,,,
,,,{12}54,,,
,,,
,,,
,,,
{2}5,4,
{4}1,,,,{8}5-1[1:1],,,,
,,,,{8},,,,
,,,,{8},,,,
,,,,
{8}1b,,{16},,,,
,,,,{8},,
{4}4,,,,
,,,,
{4},,,,
,,,,
{2}3,,,,
{2}24,,{4}1,,,,
{8}1,,,,,,,,
,,,,,,,,
{8}8,,,,,,,,
,,,,,,,,
{8}2,,,,,,,,
,,,,,,,,
{2}13,,{4}45,,,,
{12}6,,,
,,,
,,,
,,,{12}2,,,,,,
,,,,,,
{12}3,,,
,,,
,,,
,,,{12}7,,,,,,
,,,,,,
{12}53,,,
,,,
,,,
,,,{12}17,,,
,,,
,,,
,,,
{2}5,,
{12}81,,,
,,,
,,,
,,,
{12}8,,,
,,,
,,,
,,,{12}7,,,,,,
,,,,,,
{12}6,,,
,,,
,,,
,,,{12}2,,,,,,
,,,,,,
{12}46,,,
,,,
,,,
,,,{12}82,,,
,,,
,,,
,,,
{2}1,8,
{4}8,,,,{8}4-8[1:1],,,,
,,,,{8},,,,
,,,,{8},,,,
,,,,
{8},,,,
8,,,,{8}4w8[4:10],,,,
,,,,
{8},,,,
,,,,{8},,,,
,,,,
{8},,,,
,,,,
{8}2,,,,
,,,,{8},,,,
,,,,
{8}1,,,,
,,,,{8},,,,
,,,,
{8}7,,,,
,,,,{8},,,,
,,,,
{8}8,,,,
,,,,{8},,,,
,,,,
{8}8,,,,
,,,,{8},,,,
,,,,
{8}2,,,,
,,,,{4}4b,,,,
{1},,,,,,,,E
&inote_2=(240)
{1},
{8}4,,,,
,,,,{8}4,,,,
,,,,
{8}5,,,,
,,,,{8}5,,,,
,,,,
{8}3,,,,
,,,,{8}3,,,,
,,,,
{8}6,,,,
,,,,{8}6,,,,
,,,,
{8}3,,,,
,,,,{8}2,,,,
,,,,
{8}6,,,,
,,,,{8}7,,,,
,,,,
{8}2,,,,
,,,,{8}2,,,,
,,,,
{8}7,,,,
,,,,{8}7,,,,
,,,,
{8}6,,,,
,,,,{8}2,,,,
,,,,
{8}6,,,,
,,,,{8}6,,,,
,,,,
{8}7,,,,
,,,,{8}2,,,,
,,,,
{8}7,,,,
,,,,{8}7,,,,
,,,,
{8}3,,,,
,,,,{8}7,,,,
,,,,
{8}3,,,,
,,,,{8}3,,,,
,,,,
{8}2,,,,
,,,,{8}7,,,,
,,,,
{8}2,,,,
,,,,{8}2,,,,
,,,,
{8}6,,,,
,,,,{8}6,,,,
,,,,
{8}2,,,,
,,,,{8}2,,,,
,,,,
{8}7,,,,
,,,,{8}7,,,,
,,,,
{8}1,,,,
,,,,{8}1,,,,
,,,,
{8}3,,,,
,,,,{8}3,,,,
,,,,
{8}7,,,,
,,,,{8}7,,,,
,,,,
{8}2,,,,
,,,,{8}2,,,,
,,,,
{8}8,,,,
,,,,{8}8,,,,
,,,,
{8}4b,,,,
,,,,{8}4,,,,
,,,,
{8}8,,,,
,,,,{8}8,,,,
,,,,
{8}5,,,,
,,,,{8}5,,,,
,,,,
{8}1,,,,
,,,,{8}1,,,,
,,,,
{8}6,,,,
,,,,{8}4,,,,
,,,,
{8}8,,,,
,,,,{8}1,,,,
,,,,
{8}7,,,,
,,,,{8}4,,,,
,,,,
{8}8,,,,
,,,,{8}1,,,,
,,,,
{8}3,,,,
,,,,{8}5,,,,
,,,,
{8}1,,,,
,,,,{8}8,,,,
,,,,
{8}2,,,,
,,,,{8}7,,,,
,,,,
{8}5,,,,
,,,,{8}3,,,,
,,,,
{12}2,,,
,,,
,,,
,,,{12}2,,,,,,
,,,,,,
{12}7,,,
,,,
,,,
,,,{12}7,,,,,,
,,,,,,
{12}45,,,
,,,
,,,
,,,{12}45,,,
,,,
,,,
,,,
{2}4,,
{12}18,,,
,,,
,,,
,,,
{12}1,,,
,,,
,,,
,,,{12}2,,,,,,
,,,,,,
{12}7,,,
,,,
,,,
,,,{12}7,,,,,,
,,,,,,
{12}54,,,
,,,
,,,
,,,{12}54,,,
,,,
,,,
,,,
{2}5,4,
{4}1,,,,{8}5-1[1:1],,,,
,,,,{8},,,,
,,,,{8},,,,
,,,,
{8}1b,,{16},,,,
,,,,{8}3b,,
{4}4,,,,
,,,,
{4},,,,
,,,,
{2}3,,,,
{2}24,57,{4}1,,8,,
{8}1,,,,,,,,
,,,,,,,,
{8}8,,,,,,,,
,,,,,,,,
{8}2,,,,,,,,
,,,,,,,,
{2}13,,{4}45,,,,
{12}6,,,
,,,
,,,
,,,{12}2,,,,,,
,,,,,,
{12}3,,,
,,,
,,,
,,,{12}7,,,,,,
,,,,,,
{12}53,,,
,,,
,,,
,,,{12}17,,,
,,,
,,,
,,,
{2}5,,
{12}81,,,
,,,
,,,
,,,
{12}8,,,
,,,
,,,
,,,{12}7,,,,,,
,,,,,,
{12}6,,,
,,,
,,,
,,,{12}2,,,,,,
,,,,,,
{12}46,,,
,,,
,,,
,,,{12}82,,,
,,,
,,,
,,,
{2}1,8,
{4}8,,,,{8}4-8[1:1],,,,
,,,,{8},,,,
,,,,{8},,,,
,,,,
{8},,,,
8,,,,{8}4w8[4:10],,,,
,,,,
{8},,,,
,,,,{8},,,,
,,,,
{8},,,,
,,,,
{8}2,,,,
,,,,{8}5,,,,
,,,,
{8}1,,,,
,,,,{8}6,,,,
,,,,
{8}7,,,,
,,,,{8}4,,,,
,,,,
{8}8,,,,
,,,,{8}3,,,,
1,,,,
{8}8,,,,
,,,,{8}6,,,,
,,,,
{8}2,,,,
,,,,{4}4b,,2b/6b,,
{1},,,,,,,,E
&inote_3=(240)
{1},
{8}4,,,,
4,,,,{8}4,,,,
4,,,,
{8}5,,,,
5,,,,{8}5,,,,
5,,,,
{8}3,,,,
3,,,,{8}3,,,,
3,,,,
{8}6,,,,
6,,,,{8}6,,,,
6,,,,
{8}3,,,,
3,,,,{8}2,,,,
3,,,,
{8}6,,,,
6,,,,{8}7,,,,
6,,,,
{8}2,,,,
2,,,,{8}2,,,,
3,,,,
{8}7,,,,
7,,,,{8}7,,,,
6,,,,
{8}6,,,,
,,,,{8}2,,,,
,,,,
{8}6,,,,
,,,,{8}6,,,,
7,,,,
{8}7,,,,
,,,,{8}2,,,,
,,,,
{8}7,,,,
,,,,{8}7,,,,
5,,,,
{8}3,,,,
,,,,{8}7,,,,
,,,,
{8}3,,,,
,,,,{8}3,,,,
2,,,,
{8}2,,,,
,,,,{8}7,,,,
,,,,
{8}2,,,,
,,,,{8}2,,,,
4,,,,
{8}6,,,,
6,,,,{8}6,,,,
8,,,,
{8}2,,,,
2,,,,{8}2,,,,
4,,,,
{8}7,,,,
7,,,,{8}7,,,,
5,,,,
{8}1,,,,
1,,,,{8}1,,,,
7,,,,
{8}3,,,,
3,,,,{8}3,,,,
1,,,,
{8}7,,,,
7,,,,{8}7,,,,
5,,,,
{8}2,,,,
2,,,,{8}2,,,,
4,,,,
{8}8,,,,
8,,,,{8}8,,,,
2,,,,
{8}4b,,,,
6,,,,{8}4,,,,
6,,,,
{8}8,,,,
2,,,,{8}8,,,,
2,,,,
{8}5,,,,
3,,,,{8}5,,,,
3,,,,
{8}1,,,,
7,,,,{8}1,,,,
7,,,,
{8}6,,,,
7,,,,{8}4,,,,
2,,,,
{8}8,,,,
6,,,,{8}1,,,,
3,,,,
{8}7,,,,
6,,,,{8}4,,,,
2,,,,
{8}8,,,,
7,,,,{8}1,,,,
5,,,,
{8}3,,,,
2,,,,{8}5,,,,
7,,,,
{8}1,,,,
3,,,,{8}8,,,,
6,,,,
{8}2,,,,
3,,,,{8}7,,,,
2,,,,
{8}5,,,,
8,,,,{8}3,,,,
36,,,,
{12}2,,,
,,,
7,,,
,,,{12}2,,,,,,
27,,,,,,
{12}7,,,
,,,
2,,,
,,,{12}7,,,,,,
72,,,,,,
{12}45,,,
,,,
4,,,
,,,{12}45,,,
,,,
5,,,
,,,
{2}4,5,
{12}18,,,
,,,
8,,,
,,,
{12}1,,,
,,,
7,,,
,,,{12}2,,,,,,
27,,,,,,
{12}7,,,
,,,
2,,,
,,,{12}7,,,,,,
72,,,,,,
{12}54,,,
,,,
5,,,
,,,{12}54,,,
,,,
4,,,
,,,
{2}5,4,
{4}1,,7,,{8}5-1[1:1],,,,
,,,,{8},,,,
,,,,{8},,,,
,,,,
{8}1b,,{16}7b,,,,
,,,,{8}3b,,
{4},,,,
4,,,,
{4}5,,,,
5,,,,
{2}3,,6,,
{2}24,57,{4}1,,8,,
{8}1,,,,8,,,,
1,,,,8,,,,
{8}8,,,,1,,,,
8,,,,1,,,,
{8}2,,,,1,,,,
7,,,,8,,,,
{2}13,68,{4}45,,27,,
{12}6,,,
,,,
7,,,
,,,{12}2,,,,,,
71,,,,,,
{12}3,,,
,,,
2,,,
,,,{12}7,,,,,,
28,,,,,,
{12}53,,,
,,,
5,,,
,,,{12}17,,,
,,,
7,,,
,,,
{2}5,4,
{12}81,,,
,,,
2,,,
,,,
{12}8,,,
,,,
2,,,
,,,{12}7,,,,,,
28,,,,,,
{12}6,,,
,,,
7,,,
,,,{12}2,,,,,,
71,,,,,,
{12}46,,,
,,,
4,,,
,,,{12}82,,,
,,,
2,,,
,,,
{2}1,8,
{4}8,,2,,{8}4-8[1:1],,,,
,,,,{8},,,,
,,,,{8},,,,
,,,,
{8},,,,
8,,,,{8}4w8[4:10],,,,
,,,,
{8},,,,
,,,,{8},,,,
,,,,
{8},,,,
,,,,
{8}2,,4,,
,,,,{8}5,,3,,
,,,,
{8}1,,4,,
,,,,{8}6,,4,,
,,,,
{8}7,,5,,
,,,,{8}4,,6,,
,,,,
{8}8,,5,,
,,,,{8}3,,,,
1,,,,
{8}8,,7,,
,,,,{8}6,,,,
,,,,
{8}2,,,,
4,,,,{4}4b,,2b/6b,,
{1},,,,,,,,E
&inote_4=(240)
{1},
{8}4,,4,,
4,5,4,,{8}4,,4,5,
4,,4,,
{8}5,,5,,
5,4,5,,{8}5,,5,4,
5,,5,,
{8}3,,3,,
3,4,3,,{8}3,,3,4,
3,,3,,
{8}6,,6,,
6,5,6,,{8}6,,6,5,
6,,6,,
{8}3,,3,,
3,4,2,,{8}2,,2,4,
3,,3,,
{8}6,,6,,
6,5,7,,{8}7,,7,5,
6,,6,,
{8}2,,2,,
2,4,3,,{8}2,,2,4,
3,,3,,
{8}7,,7,,
7,5,6,,{8}7,,7,5,
6,,6,,
{8}6,,4,4,
,3,3,,{8}2,2,8,8,
,3,3,,
{8}6,,4,4,
,3,3,,{8}6,6,5,5,
7,7,3,3,
{8}7,,3,3,
,4,4,,{8}2,2,6,6,
,2,2,,
{8}7,,3,3,
,4,4,,{8}7h[16:1],7,4h[16:1],4,
5h[16:1],5,3h[16:1],3,
{8}3,,5,5,
,6,6,,{8}7,7,1,1,
,6,6,,
{8}3,,5,5,
,6,6,,{8}3,3,4,4,
2,2,6,6,
{8}2,,6,6,
,5,5,,{8}7,7,3,3,
,7,7,,
{8}2,,6,6,
,5,5,,{8}2h[16:1],2,5h[16:1],5,
4h[16:1],4,6h[16:1],6,
{8}6,,6,5,
6,,6,5,{8}6,,7,,
8,,1,,
{8}2,,2,1,
2,,2,1,{8}2,,3,,
4,,,,
{8}7,,7,5,
7,,7,5,{8}7,,6,,
5,,4,,
{8}1,,1,3,
1,,1,3,{8}1,,8,,
7,,,,
{8}3,,3,4,
3,,3,4,{8}3,,2,,
1,,8,,
{8}7,,7,8,
7,,7,8,{8}7,,6,,
5,,,,
{8}2,,2,4,
2,,2,4,{8}2,,3,,
4,,5,,
{8}8,,8,6,
8,,8,6,{8}8,,1,,
2,,3,,
{8}4b,,6,4,
6,,4,6,{8}4,,6,4,
6,,7,,
{8}8,,2,8,
2,,8,2,{8}8,,2,8,
2,,3,,
{8}5,,3,5,
3,,5,3,{8}5,,3,5,
3,,2,,
{8}1,,7,1,
7,,1,7,{8}1,,7,1,
7,,6,,
{8}6,,6,5,
7,,5,6,{8}4,,3,,
2,,1,,
{8}8,,7,8,
6,,8,7,{8}1,,2,,
3,,,,
{8}7,,7,5,
6,,5,6,{8}4,,3,,
2,,1,,
{8}8,,6,8,
7,,8,7,{8}1,,6,,
5,,4,,
{8}3,,3,4,
2,,4,3,{8}5,,6,,
7,,8,,
{8}1,,2,1,
3,,1,2,{8}8,,7,,
6,,,,
{8}2,,2,4,
3,,6,5,{8}7,,1,8,
2,,4,3,
{8}5,,7,6,
8,,2,1,{8}3,,45,,
36,,,,
{12}2,,2,
1,,,
7,,7,
8,,,{12}2,,2,1,,,
2-5[8:1]/7-4[8:1],,,,,,
{12}7,,7,
8,,,
2,,2,
1,,,{12}7,,7,8,,,
7-4[8:1]/2-5[8:1],,,,,,
{12}45,,3,
4,,2,
4,,1,
4,,,{12}45,,6,
5,,7,
5,,8,
5,,,
{2}4-2[8:1],5-7[8:1],
{12}18,,2,
1,,7,
8,,,
1,,2,
{12}1,,,
5b,,,
7,,7,
8,,,{12}2,,2,1,,,
2-5[8:1]/7-4[8:1],,,,,,
{12}7,,7,
8,,,
2,,2,
1,,,{12}7,,7,8,,,
7-4[8:1]/2-5[8:1],,,,,,
{12}54,,6,
5,,7,
5,,8,
5,,,{12}54,,3,
4,,2,
4,,1,
4,,,
{2}5-7[8:1],4-2[8:1],
{4}1,8,7,6,{8}5-1[1:1],,,,
,,,,{8},,,,
,,,,{8},,,,
,,,,
{8}1b,,{16}7b,,,,
5b,,,,{8}3b,,
{4},,4,,
4,,4,,
{4}5,,5,,
5,,5,,
{2}3,3,6,6,
{2}24,57,{4}1,8,1,,
{8}1,,,8,1,,,,
1,,,8,1,,,,
{8}8,,,1,8,,,,
8,,,1,8,,,,
{8}2,,,1,2,,,,
7,,,8,7,,,,
{2}13,68,{4}45,36,27,18,
{12}6,,,
7,,8,
7,,,
1,,,{12}2,,1,2,,,
7-4[8:1]/1-5[8:1],,,,,,
{12}3,,,
2,,1,
2,,,
8,,,{12}7,,8,7,,,
2-5[8:1]/8-4[8:1],,,,,,
{12}53,,2,
4,,1,
5,,8,
6,,,{12}17,,2,
8,,3,
7,,4,
6,,,
{2}5-1[8:1],4-8[8:1],
{12}81,,7,
7,,2,
2,,,
8,,7,
{12}8,,,
4b,,,
2,,1,
2,,,{12}7,,8,7,,,
2-5[8:1]/8-4[8:1],,,,,,
{12}6,,,
7,,8,
7,,,
1,,,{12}2,,1,2,,,
7-4[8:1]/1-5[8:1],,,,,,
{12}46,,7,
5,,8,
4,,1,
3,,,{12}82,,7,
1,,6,
2,,5,
3,,,
{2}1-5[8:1],8-4[8:1],
{4}8,1,2,3,{8}4-8[1:1],,,,
,,,,{8},,,,
,,,,{8},,,,
,,,,
{8},,,,
8h[2:1],,,,{8}4w8[4:10],,,,
,,,,
{8},,,,
,,,,{8},,,,
,,,,
{8},,,,
,,,,
{8}2,,4,4,
,2,2,,{8}5,5,3,3,
,7,7,,
{8}1,,4,4,
,3,3,3,{8}6,6,4,4,
8,8,1,1,
{8}7,,5,5,
,7,7,,{8}4,4,6,6,
,2,2,,
{8}8,,5,5,
,6,6,6,{8}3h[16:1],3,5h[16:1],5,
1h[16:1],1,8h[16:1],8,
{8}8,,7,7,
,2,2,2,{8}6,6,3,3,
,5,5,,
{8}2,,6,6,
4,4,4,,{4}4b,3b/5b,2b/6b,,
{1},,,,,,,,E
&inote_5=(240)
{1},
{8}4-1[8:1],,,,
2,4,3,,{8}3,,8,5,
7-4[8:1],,1,,
{8}2-5[8:1],,,,
7,4,6,,{8}6-1[8:1],,,,
5-1[8:1],,,,
{8}4,,,,
2,4,3,,{8}5,,6,5,
7,,,,
{8}7^4[8:1],,,,
1^4[8:1],,,,{8}8-4[8:1],,,,
1-5[8:1],,,,
{8}8,2,6,5,
7,,,,{8}8,,7,5,
6,,4-8[8:1],,
{8}5,,,,
1,8,2,,{8}12,,,,
3,4,2,8,
{8}4,6,,,
6,5,7,,{8}78,,7,1,
8-4[8:1],,1,,
{8}2-5[8:1],,,,
7-4[8:1],,,,{8}1,,{16}7,6,5,,
2,3,4,,{8}8,,
{8}7,,1,1,
,2,4,3,{8}7,8,5,2-5[8:1],
,8,8,,
{8}7,,8,8,
,3,4,2,{8}7,8,5,2,
8,1,6,4,
{8}7,,4,4,
,6,5,7,{8}2,1,4^1[4:1],6,
,5,5,,
{8}7,,3,3,
,7,8,6,{16}1/8b,2,3,,
1b/8,7,6,,
1/8b,2,3,,
1b/8,7,6,,
{8}2,,8,8,
,7,5,6,{8}2,1,4,7-4[8:1],
,1,1,,
{8}2,,1,1,
,6,5,7,{8}2,1,4,7,
1,8,3,5,
{8}2,,5,5,
,3,4,2,{8}7,8,5^8[4:1],3,
,4,4,,
{8}2,,6,6,
,2,1,3,{16}8/1b,7,6,,
8b/1,2,3,,
8/1b,7,6,,
8b/1,2,3,,
{8}7-4[8:1],,8,,
7-4[8:1],,1,,{8}2^5[4:1],,5^8[4:1],,
8q5[4:1],,,,
{8}6-1[8:1],,5,,
6-1[8:1],,4,,{8}2-5[8:1],,7-4[8:1],,
3-8[4:1],,,,
{8}7-4[8:1],,1,,
7-4[8:1],,3,,{8}1^4[4:1],,4-8[4:1],,
8^3[4:1],,,,
{8}5-8[8:1],,4,,
5-8[8:1],,1,,{8}2-7[8:1],,6-3[8:1],,
1-4[8:1]*-6[8:1],,,,
{8}2-5[8:1],,1,,
2-5[8:1],,8,,{8}7^4[4:1],,4^1[4:1],,
1p4[4:1],,,,
{8}3-8[8:1],,4,,
3-8[8:1],,5,,{8}7-4[8:1],,2-5[8:1],,
6-1[4:1],,,,
{8}2-5[8:1],,8,,
2-5[8:1],,6,,{8}8^5[4:1],,5-1[4:1],,
1^6[4:1],,,,
{8}4-1[8:1],,5,,
4-1[8:1],,8,,{8}7-2[8:1],,3-6[8:1],,
8-5[8:1]*-3[8:1],,,,
{8}4bw8[4:6],,,,
,,,,{8},,,,
,,,,
{8}6,5,8,2,
4,3,7,1,{8}5,3,7,1,
5^8[8:1],,3,,
{8}2,8,1,5,
4,7,1,8,{8}3,6,1,8,
4-1[8:1],,5,,
{8}7,8,5,3,
1,2,6,4,{8}8,2,6,4,
8^5[8:1],,2,,
{8}1-4[8:1]/5,,5,,
1-4[8:1]/5,,6,,{8}1-4[8:1]/5,,7,,
1-4[8:1]/5,,8,,
{8}7-4[8:1]/3,,2,,
7-4[8:1]/3,,1,,{8}8-3[8:1],,6-1[8:1],,
5-2[8:1],,,,
{8}5-8[8:1]/1,,1,,
5-8[8:1]/1,,2,,{8}5-8[8:1]/1,,3,,
5-8[8:1]/1,,4,,
{8}3-8[8:1]/7,,6,,
3-8[8:1]/7,,5,,{8}4-7[8:1],,2-5[8:1],,
1-6[8:1],,8,,
{8}7^4[8:1]/8,,2,,
2^5[8:1]/1,,7,,{8}7^4[8:1]/8,,2,,
2^5[8:1]/1,,7,,
{8}1^4[8:1]/6,,8,,
8^5[8:1]/3,,1,,{8}1-5[8:1],,7-4[8:1],,
3-8[8:1],,,,
{8}2^5[8:1]/5,,7,,
7^4[8:1]/4,,2,,{8}1-5[8:1]/5,,7,,
8-4[8:1]/4,,2,,{8}8>4[8:1]/4,,7,,
1<5[8:1]/5,,2,,{8}1-5[8:1],,8-4[8:1],,
5bw1[8:1],,,,
{12}2-5[8:1],,,
8,,,
7-4[8:1],,,
1,,,{8}2-5[8:1],,8-4[8:1],,
1-5[8:1],,8,,
{12}7-4[8:1],,,
8,,,
2-5[8:1],,,
1,,,{8}7-4[8:1],,1-5[8:1],,
8-4[8:1],,1,,
{8}2-5[8:1],,8-4[8:1],,
5-1[8:1],,7-4[8:1],,{8}1-5[8:1],,4-8[8:1],,
2-5[8:1],,7,,{8}8p3[8:1]/6p1[8:1],,,,
1q6[8:1]/3q8[8:1],,,,{8}8-4[8:1],8,1-5[8:1],1,
8b,,,,
{12}5^2[8:1]*^8[8:1],,,,,,
8-4[8:1],,,3,,,{12}1-5[8:1],,,6,,,
8w4[8:1],,,,,,
{12}1-5[8:1],,,
6,,,
8-4[8:1],,,
3,,,{8}2-5[8:1],,8-4[8:1],,
1-5[8:1],,8,,
{8}7-4[8:1],,1-5[8:1],,
4-8[8:1],,2-5[8:1],,{8}8-4[8:1],,5-1[8:1],,
7-4[8:1],,2,,{8}1q6[8:1]/3q8[8:1],,,,
8p3[8:1]/6p1[8:1],,,,
{8}1-5[8:1],,8-4[8:1],,
2-6[8:1],,5-1[8:1],,{8}4>5[4:6],,,,
,,,,{8},,,,
,,,,{8},,,,
,,,,
{8}8b,,{16}2b,3,4,,
7b,6,5,,{8}1b,,
{8}5-7[8:1],,1,,
5-7[8:1],,1,,{8}5-7[8:1],,1,,
5-7[8:1]/1-3[8:1],,,,
{8}4-2[8:1],,8,,
4-2[8:1],,8,,{8}4-2[8:1],,8,,
4-2[8:1]/8-6[8:1],,,,
{8}5-7[8:1],,8,,
1-3[8:1],,4,,{8}5-7[8:1],,8,,
1-3[8:1],,4,,
{8}5-8[8:1]/4z8[8:1],,,,
8-5[8:1]*z4[8:1],,,,{8}5V37[8:3],,2-8[8:1],,
,,,,
{8}4-2[8:1]/8,,6,,
4-2[8:1]/8,,6,,{8}4-2[8:1]/8,,6,,
4-2[8:1]/8-6[8:1],,,,
{8}5-7[8:1]/1,,3,,
5-7[8:1]/1,,3,,{8}5-7[8:1]/1,,3,,
5-7[8:1]/1-3[8:1],,,,
{8}4-2[8:1]/5,,1,,
8-6[8:1]/1,,5,,{8}4-2[8:1]/5,,1,,
8-6[8:1]/1,,5,,
{8}5p8[8:1]/4>8[8:1],,,,
8q5[8:1]*>4[8:1],,,,{16}27,3,4,,
27,6,5,,
27,3,4,,
27,6,5,,
{8}2-5[8:1],,8,,
7-4[8:1],,1,,
{8}3-8[8:1],,8-4[8:1],,
1-5[8:1],,6,,
{8}7-4[8:1],,1,,
2-5[8:1],,8,,
{8}6-1[8:1],,1-5[8:1],,
8-4[8:1],,3,,
{8}2-6[8:1],,8-4[8:1],,
5^2[8:1],,7-3[8:1],,{8}1-5[8:1],,4^7[8:1],,
2-6[8:1],,7,,{8}8<3[8:1]/6p1[8:1],,,,
1>6[8:1]/3q8[8:1],,,,{8}8-4[8:1],8,1-5[8:1],1,
8b,,4,4,
{8}4^1[8:1]*^7[8:1],,,,
8-4[8:1],,
2,,
{8}1-5[8:1],,7,,
8w4[8:1],,,,
{8}2-5[8:1],,
1,,
7-4[8:1],,
8,,{8}3-8[8:1],,8-4[8:1],,
1-5[8:1],,8,,
{8}7-3[8:1],,1-5[8:1],,
4^7[8:1],,2-6[8:1],,{8}8-4[8:1],,5^2[8:1],,
7-3[8:1],,2,,{8}1>6[8:1]/3q8[8:1],,,,
8<3[8:1]/6p1[8:1],,,,
{8}8-4[8:1],,7-2[8:1],,
6-3[8:1],,5-1[8:1],,{8}4>5[4:6],,,,
,,,,
{8},,,,
,,,,
{8},,,,
,,,,
{8},,,,
8-5[8:1],,,,{8}4w8[4:10],,,,
,,,,
{8},,,,
,,,,{8},,,,
,,,,
{8},,,,
,,,,
{8}1-5[8:1],,7-3[8:1],7,
,2,4,3,{8}8,2,6,5^2[8:1],
,6,6,,
{8}1^4[8:1],,7-3[8:1],7,
,2,4,3,{8}7,8,5,3,
8,1,6,4,
{8}8-4[8:1],,2-6[8:1],2,
,7,5,6,{8}1,7,3,4^7[8:1],
,3,3,,
{8}8^5[8:1],,3-8[8:1],3,
,6,1,7,{16}8b/4,7,6,,
8b/4,1,2,,
8b/4,7,6,,
8b/4,1,2,,
{8}7^4[8:1],,1-5[8:1],1,
,7,8,6,{8}2,4,1,7^4[8:1],
,1,1,,
{8}1b/2b,,4,6,
8,7,3,5,{8}4b^1[8:1]*-1[8:1],,4^7[8:1]*-7[8:1],,
4b,,,,
{1},,,,,,,,E
