&title=Angel boring (feat. Aiobahn +81)
&artist=NEEDY GIRL OVERDOSE Soundtrack
&first=0.085
&des=拾玖
&lv_5=13
&inote_5=(162){4},,,,4,
5,{16}4,5,,4h[16:3],,,{8}5,
(154){8},4,4,4,5/3,5/3,5/3,5/3,
(150){4}2-4[8:1],5,2-4[8:1],6,
2-4[8:1],5,2-4[8:1],6,
2-4[8:1],5,2-4[8:1],6,
2-4[8:1],5,2-4[8:1],6,
{8}6/2-4[8:1],6,5,5,2-4[8:1],6,7,7,
8/2-4[8:1],8,7p4[8:3],7,{2}2-4[8:1],
2-4[8:1]/6-8[8:1],6-4[8:1]/2-4[8:1],
2-4[8:1]/6pp4[2:1],2-4[8:1],
{8}7/2-4[8:1],7,6,6,2-4[8:1],7,8,8,
7/2-4[8:1],7,6p4[8:3],6,{2}2-4[8:1],
{8}A1/B1,5h[8:1],A2/B2,6h[8:1],A3/B3,7,7/A4/B4,8,
1/A5/B5,1,A6/B6/2q4[8:3],2,{4}A7/B7,8b,
{2}7-5[8:1]/3-1[8:1],3-5[8:1]/7-5[8:1],
7-5[8:1]/3qq5[2:1],7-5[8:1],
7-5[8:1]/3-5[8:1],7-5[8:1]/3-1[8:1],
7-5[8:1]/3qq5[2:1],7-5[8:1],
{8}3/7-5[8:1],3,4,4h[8:1],7-5[8:1],3,2,2,
3/7-5[8:1],3,4,4h[8:1],7-5[8:1],3,2,2,
1/7-5[8:1],1,2q5[8:3],2,{2}7-5[8:1],
{8}2/7-5[8:1],2,3q5[8:3],3,{2}7-5[8:1],
{8}3/7-5[8:1],3,4,4h[8:1],7-5[8:1],3,2,2,
3/7-5[8:1],3,4,4h[8:1],7-5[8:1],3,2,2h[8:1],
7-5[8:1],2,3,2,3/7-5[8:1],2,3,2,
7/3,6/2,7/3,2V47[4:1]/6V83[4:1],,,,,{4}2-4[8:1],
2/5,2-4[8:1],2/7,
2-4[8:1],2/5,2-4[8:1],2/7,
2-4[8:1],2/5,2-4[8:1],2/7,
2-4[8:1],2/5,2-4[8:1],2/7,
{8}6/2-4[8:1],6,2/7,7h[8:1],2-4[8:1],8,2/7,6,
5/2-4[8:1],5,2/6q8[8:3],6,{4}2-4[8:1],2,
2-4[8:1]/6-4[8:1],2/6,2-4[8:1]/6-8[8:1],2/6,
2-4[8:1]/6qq1[2:1],2,2-4[8:1],2,
{8}7/2-4[8:1],7,2/6,6h[8:1],2-4[8:1],5,6/2,7,
8/2-4[8:1],8,2/7q1[8:3],7,{4}2-4[8:1],2,
{8}A1/B1,8h[8:1],A2/B2,7h[8:1],A3/B3,6,6/A4/B4,5,
4/A5/B5,4,A6/B6/3pp2[8:3],3,{4}A7/B7,8b,
{48}6-4[8:1]/2<8[8:1],E7,B7,B8,{4},{16},,{24},{48}6-4[8:1]/2>4[8:1],E7,B7,B8,{4},{16},,{24},{48}6-4[8:1]/2q4[8:3],
E7,B7,B8,{4},{16},,{24},{48}6-4[8:1],E7,B7,B8,{4},{16},,{24},{48}6-4[8:1]/2>4[8:1],
E7,B7,B8,{4},{16},,{24},{48}6-4[8:1]/2<8[8:1],E7,B7,B8,{4},{16},,{24},{48}6-4[8:1]/2q4[8:3],
E7,B7,B8,{4},{16},,{24},{48}6-4[8:1],E7,B7,B8,{4},{16},,{24},{48}2/7-1[8:1],
E7,B6,B5,,,{8}2,3,3h[8:1],{48}7-1[8:1],E7,B6,B5,,,{8}4,3,2,
{48}3/7-1[8:1],E7,B6,B5,,,{8}3,4,4h[8:1],{48}7-1[8:1],E7,B6,B5,,,{8}4,3,2,
{48}4/7-1[8:1],E7,B6,B5,,,{8}4,3q5[8:3],3,{48}7-1[8:1],E7,B6,B5,{4},{16},,{24},{48}4/7-1[8:1],
E7,B6,B5,,,{8}4,3p1[8:3],3,{48}7-1[8:1],E7,B6,B5,{4},{16},,{24},{48}2/7-1[8:1],
E7,B6,B5,,,{8}2,3,3h[8:1],{48}7-1[8:1],E7,B6,B5,,,{8}2,3,4,
{48}2/7-1[8:1],E7,B6,B5,,,{8}2,3,3h[8:1],{48}7-1[8:1],E7,B6,B5,,,{8}2,3,4h[8:1],
{48}7-5[8:1],E8,B8,B1,,,{8}4,3,4,{48}3/7-5[8:1],E8,B8,B1,,,{8}4,3,4,
2b/7b,4b/5b,7b/2bp8[8:3],4b/5bs1[4:1]b,{4},,{48}2-8[8:1],
E3/B5,B3/B6,B4/E7,,,,,,,,,{4}7,{48}2-8[8:1],E3/E7,B3/B6,B4/B5,,,,,,,,,{4}5,
{48}2-8[8:1],E3/B5,B3/B6,B4/E7,,,,,,,,,{4}7,{48}2-8[8:1],E3/E7,B3/B6,B4/B5,,,,,,,,,{4}5,
{48}2-8[8:1],E3/B5,B3/B6,B4/E7,,,,,,,,,{4}7,{48}2-8[8:1],E3/E7,B3/B6,B4/B5,,,,,,,,,{4}5,
{48}2-8[8:1],E3/B5,B3/B6,B4/E7,,,,,,,,,{4}7,{48}2-8[8:1],E3/E7,B3/B6,B4/B5,,,,,,,,,{4}5,
{48}5x/2-8[8:1],E3,B3,B4,,,{8}5x,4,4h[8:1],{48}2-8[8:1],E3,B3,B4,,,{8}5,6,7,
{48}6/2-8[8:1],E3,B3,B4,,,{8}6,5pp4[8:3],5,{48}2-8[8:1],E3,B3,B4,{4},{16},,{24},{48}2-8[8:1]/4-6[8:1],
E3,B3,B4,{4},{16},,{24},{48}2-8[8:1]/8-6[8:1],E3,B3,B4,{4},{16},,{24},{48}2-8[8:1]/6pp4[2:1],
E3,B3,B4,{4},{16},,{24},{48}2-8[8:1],E3,B3,B4,{4},{16},,{24},{48}5x/2-8[8:1],
E3,B3,B4,,,{8}5x,4,4h[8:1],{48}2-8[8:1],E3,B3,B4,,,{8}5,6,7,
{48}6/2-8[8:1],E3,B3,B4,,,{8}6,5q8[8:3],5,{48}2-8[8:1],E3,B3,B4,{4},{16},,{24},{48}2-8[8:1],
E3,B3,B4,,,{8}7h[8:1],,6h[8:1],{48}2-8[8:1],E3,B3,B4,,,{8}5,4,4,
{48}5/2-8[8:1],E3,B3,B4,,,{8}6,{4}7qq4[8:3],{48}2-8[8:1],E3,B3,B4,{4},{16},,{24},{48}2-8[8:1]/6-4[8:1],
E3/E7,B3/B7,B4/B8,{4},{16},,{24},{48}2-4[8:1]/6-8[8:1],E2/E6,B1/B5,B8/B4,{4},{16},,{24},{48}2-8[8:1]/6-8[8:1],
E3/E6,B3/B5,B4,{4},{16},,{24},{48}2-4[8:1]/6-4[8:1],E2/E7,B1/B7,B8,{4},{16},,{24},{48}7/2-8[8:1],
E3/E7,B3/B6,B4/B5,{4},{16},,{24},{48}5/2-4[8:1],E2/E6,B1/B6,B8/B7,{4},{16},,{24},{48}7h[4:1]/2-8[8:1],
E3,B3,B4,{4},{16},,{24},{48}5h[4:1]/2-4[8:1],E2,B1,B8,
E
