&title=ふわり
&artist=ESHIKARA feat.MIMI,可不,初音ミク
&first=0
&des=Holinalinalinalinalinality
&clock_count=4
&lv_5=13
&inote_5=(164)
{1}
,
{4}
,,,,
{64}
,
{16}
E6/E4,,,,3x,,4x,,
3x,,4x,,3x,,5x,,
3x,,E8,E7,E6,,3x,,
3x/6x,,,,E3/E7,,,,
E4/E6,,,,6x,,5x,,
6x,,5x,,6x,,4x,,
6x,,E2,E3,E4,,6x,,
5x/4x,,,,7b/2b,,,,
{16}
3/6,,,,2,,4,,
2,,5,,2,,6,,
3,,5,4,5,,4,,
3/6,,,,2/7,,,,
6/3,,,,7,,5,,
7,,4,,7,,3,,
6,,4,5,4,,5,,
6h[4:1]/3h[4:1],,,,,,,,
3/6,,,,3,,2/4,,
6,,5/7,,4,,5/3,,
5,,4,5,4,,6,,
3/6,,,,2/7,,,,
6/3,,,,6,,7/5,,
3,,4/2,,5,,4/6,,
4,,5,4,5,,3,,
6b/3b,,,,,,,,
{16}
8h[4:1],,,,2-4[8:1],,1,,
2,,,,7-5[8:1],,8,,
7,,,,3,,2/4,,
6,,5/7,,6,,6,,
1-3[8:1],,5,,1,,5,,
4-2[8:1],,7,,4,,7,,
1-3[8:1],,6,,1>8[2:1],,6,,
1x,,,,,,,,
5h[4:1],,,,2>4[8:1],,1,,
2,,,,7<5[8:1],,8,,
7,,,,3,,2/4,,
6,,5/7,,6,,3,,
8-6[8:1],,2,,8,,2,,
5-7[8:1],,3,,5,,3,,
8-6[8:1],,4-2[8:1],,8,,4,,
5x,,1x,,6x,,2x,,
{16}
7<5[8:1],,,,7/3,,2,,
1>3[8:1],,,,1/5,,6,,
7<5[8:1],,,,7/3,,2,,
1>3[8:1],,5,,1,,6,,
7,,1-3[8:1],,7,,1,,
6,,4-2[8:1],,6,,4,,
7,,1,,7,,1,,
7h[4:1]/2,,,,,,,,
2>4[8:1],,,,2/6,,7,,
8<6[8:1],,,,8/4,,3,,
2>4[8:1],,,,2/6,,7,,
8<6[8:1],,4,,8,,3,,
2,,8-6[8:1],,2,,8,,
3,,5-7[8:1],,3,,5,,
1b-6[8:1]*-7[8:1],,,,1b-4[8:1]*-3[8:1],,,,
1b,,,,7<5[8:1],,8,,
{16}
1/7,,,,2>5[8:1],,1,,
2/8,,,,7-5[8:1],,8,,
1-3[8:1]/7-3[8:1],,,,1-5[8:1]/7-5[8:1],,,,
1/7,,,,2>4[8:1],,1,,
2/7,,,,7<5[8:1],,8,,
2/7,,,,2>4[8:1],,1,,
2/7<5[8:1],,8,,2>4[8:1]/7,,1,,
2/7,,,,7<5[8:1],,4,,
{16}
7b,,,,3>1[8:1],,5,,
3b,,,,5,,4/6,,
4,,3/5,,5-8[8:1],,4/6,,
5,,,,1>4[8:1],,2/8,,
1<6[8:1],,,,1-4[8:1],,3,,
1-6[8:1],,7,,1,,3,,
1,,7,8,6-3[8:1],,1,,
6b,,,,2>4[8:1],,5,,
2b,,,,6<8[8:1],,4,,
6b,,,,4,,5/3,,
5,,6/4,,4-1[8:1],,5/3,,
4,,,,8<5[8:1],,7/1,,
8>3[8:1],,,,8-5[8:1],,6,,
8-3[8:1],,2,,8,,6,,
8,,2,1,3-6[8:1],,8,,
3/8-5[8:1],,,,8,,,,
{16}
3b,,,,6,,7/5,,
3,,4/2,,5,,4/6,,
4,,5,4,5,,3,,
6/3,,,,7/2,,,,
3/6,,,,3,,2/4,,
6,,5/7,,4,,5/3,,
5,,4,5,4,,6,,
3b/6b,,,,,,,,
{16}
1-3[8:1],,,,1/5,,6,,
7,,,,8-5[8:1]*-3[8:1],,,,
8,,,,1pp4[2:1],,,,
1,,8,,7,,6,,
5-7[8:1],,3,,5,,3,,
8-4[8:1],,2,,8,,2,,
5-7[8:1],,1-3[8:1],,5,,1,,
8h[4:1],,,,,,,,
5/4,,,,4-1[8:1]*-7[8:1],,,,
4,,,,5-8[8:1]*-2[8:1],,,,
5,,,,4,,6,,
3,,5,,4/6,,5,,
4-2[8:1],,6,,4,,6,,
1-5[8:1],,7,,1,,7,,
4-2[8:1],,8-6[8:1],,4,,8,,
{16}
1h[4:1],,,,7,,,,
5/3,,B8,B7,E7,,3,,
4/6,,5,,3/5,,4,,
4/6,,B1,B2,E3,,6,,
5/3,,4,,6/4,,5,,
5/3,,B8,B7,E7,,3,,
4/6,,5,,3/5,,4,,
4/6,,B1,B2,E3,B8,B7,E7,
4-1[8:1],,6,,4,,,,
7,,6,5,7h[8:1],,5,,
6/4,,5,,3/5,,3,,
5,,3,4,2h[8:1],,4,,
5/3,,,,6/4,,5,,
3/6,,5,4,5,,3/6,,
6,,4,,5,,3,,
4/6,,B1,B2,E3,B8,B7,E7,
4,,4,,7<5[8:1],,4,,
{16}
7b,,,,3>1[8:1],,5,,
3b,,,,5,,4/6,,
4,,3/5,,5-8[8:1],,4/6,,
5,,,,1>4[8:1],,2/8,,
1<6[8:1],,,,1-4[8:1],,3,,
1-6[8:1],,7,,1,,3,,
1,,7,8,6-3[8:1],,1,,
6b,,,,2>4[8:1],,5,,
2b,,,,6<8[8:1],,4,,
6b,,,,4,,5/3,,
5,,6/4,,4-1[8:1],,5/3,,
4,,,,8<5[8:1],,7/1,,
8>3[8:1],,,,8-5[8:1],,6,,
8-3[8:1],,2,,8,,6,,
8,,2,1,3-6[8:1],,8,,
3/8,,,,8-4[8:1],,4<7[8:1],,
8b,,,,1-5[8:1],,5>2[8:1],,
1b,,,,7,,1,,
7V51[4:1],,2x,2x,7,,3,,
3,,,,2>4[8:1],,7,,
2,,,,8-4[8:1],,2,,
8,,2,,5<7[8:1],,2,,
5,,2x,3x,4x,,8,,
1,,,,1-5[8:1],,5>2[8:1],,
1b,,,,8-4[8:1],,4<7[8:1],,
8b,,,,2,,8,,
2V48[4:1],,7,,2,,6,,
6,,,,7/5-8[8:1],,6,,
5-2[8:1]/3,,,,5,,7,,
7<5[8:1],,3>1[8:1],,7,,3,,
6x,,1x,7x,1x-4[8:1],,8,,
1b,,,,6,,,,
{16}
3/6,,,,2,,4,,
2,,5,,2,,6,,
3,,5,4,5,,4,,
3/6,,,,2/7,,,,
6/3,,,,7,,5,,
7,,4,,7,,3,,
6,,4,5,4,,5,,
6h[4:1]/3h[4:1],,,,,,,,
3/6,,,,3,,2/4,,
6,,5/7,,4,,5/3,,
5,,4,5,4,,6,,
3/6,,,,2/7,,,,
6/3,,,,6,,7/5,,
3,,4/2,,5,,4/6,,
4,,5,4,5,,4,,
6b/3b,,,,2xv5[4:4],,,,
,,,,,,,,
,,,,,,,,
,,,,,,,,
,,,,,,,,
,,,,,,,,
,,,,,,,,
,,,,,,,,
,,,,,,,,
E
