&title=Ultimate Force
&artist=削除
&first=0
&des=S74390E2-UF01
&lv_5=15
&inote_5=(270)
{4},,,,
{4}6h[4:14]/5qq1[4:13],,,,
{1},,,
{24}7h[4:6]/2,3,4,5s1[8:9],,,{4},,,,,,,
{24}2h[4:6]/7,6,5,4z8[8:9],,,{4},,,,,,,
{24}8h[4:4]/3,4,5,6s2[8:9],,,{4},,,,,{8},6,,,
{24}1h[4:2]/6,5,4,3z7[8:9],,,{4},,,2h[4:1],,2,2-5[8:1],
{4}2bz6[4:5],,,,,,8,,
{4}5h[4:6]/4>5[4:15],,,,
{4},,,,
{4}3h[4:2],,,,
{4}2h[4:2],,,,
{4}1h[4:4],,,,
{4}5,5-1[8:1],,,
{4}1b-5[4:7],6h[8:1],4h[8:1],7h[8:1],
{4}3h[8:1],8h[8:1],2h[8:1],1,
{1}1h[16:31],,
{32}2b/8b,3s7[32:73]/7,4/6z2[32:72],5,,,,,{4},,,
{1},,
{4},,,8,
{4}3b-5[8:1]/8b,7-3[8:1],1-5[8:1],6-1[8:1],
{8}2,2h[4:1],,7,,7,8,,
{4}1-4[8:1],7-4[8:1],2-5[8:1],8-5[8:1],
{8}3,3,2,2h[4:1],,7,7,,
{8}8-4[8:1]/3,,2-6[8:1],,5-1[8:1],,3-6[8:1],,
{8}8,8h[4:1],,2,,2,1,,
{16}7h[4:1],,,,1,2,3,,6h[4:1],,,,4,3,2,,
{8}8,8,1,1h[4:1],,7,7,,
{8}6b-4[8:1]/2b,,2-6[8:1],,7-4[8:1],,3-8[8:1],,
{8}5,5h[4:1],,3,,3,8,,
{8}2-5[8:1]/7,,6-1[8:1],,4-1[8:1],,7-4[8:1],,
{8}8,8,1,1h[4:1],,6,6,,
{8}5-1[8:1]/2,,2-5[8:1],,7-3[8:1],,4-1[8:1],,
{8}8,8h[4:1],,2,,7,7,,
{8}3h[4:1],,{16}8,7,{8}6,2h[4:1],,{16}5,6,{8}7,
{8}4,5,3,3h[4:1],,6,6,,
{16}4h[8:3],,,,5,6,7,8,3h[8:3],,,,4,5,6,7,
{16}2h[8:3],,,,3,4,5,6,1h[8:3],,,,2,3,4,5,
{8}2h[4:1],,4h[4:1],,6,,7,7,
{8}1,,8-4[8:1],8,8/2-8[8:1],,,,
{16}5h[8:3],,,,4,3,2,1,6h[8:3],,,,5,4,3,2,
{16}7h[8:3],,,,6,5,4,3,8h[8:3],,,,7,6,5,4,
{8}7-4[8:1],,1/7,,2,2,3,3,
{8}4h[4:1],,5-1[8:1],6,7-5[8:1],,,,
{16}2h[4:1],,,,3,4,5,6,7h[4:1],,,,6,5,4,3,
{16}2h[4:1],,,,3,4,5,6,7h[4:1],,,,6,5,4,3,
{8}2-5[8:1],,1-5[8:1],,8-5[8:1],,7,7,
{8}7h[4:1],,3,4,3-6[8:1],3,8,,
{8}7-4[8:1],,7/3-8[8:1],,3/6-1[8:1],,6/2-5[8:1],,
{8}8/2,,6-3[8:1],6,6/2-7[8:1],2,2,,
{8}8-4[8:1],,2,2,2-6[8:1],,7,,
{8}8,8,8,8,{16}1,8,1,8,1,8,1,8,
{8}1bpp6[4:4],,,,,,,,
{8},,,,7,,,,
(135)
{8}5b-1[12:1],,3h[8:3],,8-4[8:1],7h[8:1],8,6h[4:1],
{8}1-5[12:1],2h[8:1],1,3h[4:1],6-1[12:1],7h[8:3],6,,
{8}2b-6[12:1],,2/3h[8:3],,7p2[8:1],6h[8:1],7,8h[4:1],
{8}1p4[8:1],2h[8:1],1,3h[4:1],5p8[8:1],6h[8:1],5,7,
{8}7b-3[8:1],,7/6h[8:3],,2V86[8:1],3h[8:1],2,4h[4:1],
{8}5V31[8:1],6h[8:1],5,7h[4:1],8V64[8:1],1h[8:1],8,,
{8}2bv5[12:1]/5,,8/2,,6V41[8:1],7h[8:1],6,8h[4:1],
{8}1V74[8:1],2h[8:1],1,3h[4:1],4-8[12:1],5h[8:1],4b,,
(67.5)
{48}6>1[8:1],,6h[24:1],,,,1V73[8:1],,1h[24:1],,,,
2h[12:1],,,,,,4h[12:1],,,,,,
4h[48:1],,4h[48:1],,4h[48:1],,5h[48:1],,5h[48:1],,5h[48:1],,
1,2,3,5,6,7,2,3,4,5,6,7,
{48}1bV36[8:1]/8b,,1,,2,,6z2[8:1],,6,,7,,
8h[12:1],,,,,,7h[12:1],,,,,,
5h[48:1],,5h[48:1],,5h[48:1],,4h[48:1],,4h[48:1],,4h[48:1],,
7,6,5,3,2,1,7,6,5,4,3,2,
{48}1b/8bV61[12:1],,8,,1-5[24:1],,4V25[12:1],,4,,5-1[24:1],,
8,,3,,3,,4,,7,,7,,
8h[48:1],,8h[48:1],,8h[48:1],,1h[48:1],,1h[48:1],,1h[48:1],,
7,6,5,3,2,1,7,6,5,4,3,2,
{48}1b-5[24:1]/8b,,5-1[24:1],,1-3[24:1],,8-4[24:1],,4-8[24:1],,8-6[24:1],,
1,,7,,7,,8,,2,,2,,
1h[48:1],,1h[48:1],,1h[48:1],,8h[48:1],,8h[48:1],,8h[48:1],,
3,2,1,7,6,5,3,2,1,8,7,6,
(135)
{8}4b/5bqq8[4:4],,,,,,1,,
{8}2,3,4h[4:2],,,,8,,
{8}7<4[4:1],,1,,3>8[4:1],,{12}8,7,6,
{8}5h[4:3],,,,,,1,,
(270)
{8}2h[4:1],,8h[4:1],,2h[4:1],,7h[8:1],3h[8:1],
{8}7h[8:1],3h[8:1],6h[8:1],4h[8:1],6h[8:1],4h[8:1],5h[4:1],,
{8}1h[4:1],,5h[4:1],,1h[4:1],,6h[8:1],2h[8:1],
{8}6h[8:1],2h[8:1],7h[8:1],3h[8:1],7h[8:1],3h[8:1],8,,
{8}6h[4:1],,4h[4:1],,6h[4:1],,3h[8:1],7h[8:1],
{8}3h[8:1],7h[8:1],2h[8:1],6h[8:1],2h[8:1],6h[8:1],1h[4:1],,
{8}5h[4:1],,1h[4:1],,5h[4:1],,2h[8:1],6h[8:1],
{8}3h[8:1],7h[8:1],4h[8:1],8h[8:1],3h[8:1],7h[8:1],2-5[8:1],,
{8}2b/8b,,7-4[8:1],,3,,2,,
{8}1-5[8:1],1,,8,8-4[8:1],,,,
{8}3-1[8:1],3,5,5-1[8:1],,,2,,
{8}3-5[8:1],,3/8,,7-5[8:1],,2/7,,
{8}1-4[8:1],,1,,1-6[8:1],,1,,
{8}2-5[8:1],1,2,7,7-4[8:1],,,,
{8}3-5[8:1],5-1[8:1],3,7,,,8,,
{8}7-3[8:1],,6,,5-1[8:1],,4,,
{8}2b-4[8:1]/8h[4:2],,2,,2-5[8:1],,2/8,7,
{8}2-4[8:1]/6h[4:1],,2,8h[4:1],2-5[8:1],,2/7,,
{8}7b-5[8:1]/3h[4:2],,7,,7-4[8:1],,7/1,2,
{8}7-5[8:1]/3h[4:1],,7,2h[4:1],7-4[8:1],,7/1,,
{16}2,3,4,5,3,4,5,6,{24}4,5,6,7,8,1,2h[4:1],,,,,,
{16}7,6,5,4,6,5,4,3,{24}5,4,3,2,1,8,7h[4:1],,,,,,
{16}1,,8,,{32}1b,2,3,4,,,,,{16}8,,1,,{32}8b,7,6,5,,,,,
{24}1b,2,3,4,5,6,1b,8,7,6,5,4,1b,2,3,4,5,6,1b,8,7,6,5,4,
{4}3z7[4:5]/1b,,,,,,,,
{32}1>4[8:1],,,,,,,,1/5-2[8:1],6,7,,,,,,1V35[8:1],8,7,,,,,,5,6,7,,,,,,
{8}8h[4:1],2h[4:1],,6h[4:1],,4h[4:1],,8,
{32}8-4[8:1],,,,,,,,8/4<7[8:1],3,2,,,,,,8V64[8:1],1,2,,,,,,4,3,2,,,,,,
{8}1,1,7,7h[4:1],,3,,1,
{32}1v4[8:1],,,,,,,,1/5-2[8:1],6,7,,,,,,1>4[8:1],8,7,,,,,,5,6,7,,,,,,
{8}8,8h[4:1],,4h[4:1],,7,7,,
{32}2h[4:1],,,,,,,,8,7,6,5,,,,,3h[4:1],,,,,,,,7,6,5,4,,,,,
{32}2,,,,1,,,,2,,,,2h[8:1],,,,8,,7,,6,,5,,2,,3,,4,,5,,
{32}8<5[8:1],,,,,,,,8/4V68[8:1],3,2,1,,,,,8v5[8:1],1,2,3,,,,,4,3,2,1,,,,,
{8}2,2h[4:1],,8,,7,7h[4:1],,
{32}1V35[8:1],,,,,,,,1/5-2[8:1],6,7,8,,,,,1>4[8:1],8,7,6,,,,5,6,7,8,,,,,,
{8}7,1,7,7h[4:1],,3,3,,
{32}8-4[8:1],,,,,,,8/4b-7[8:1],3,2,1,,,,,,8b<5[8:1],1,2,3,,,,,4b,3,2,1,,,,,
{8}2,2h[4:1],,6h[4:1],,4,4,,
{32}7h[8:3],,,,,,,,1b,2,3,4,,,,,8h[8:3],,,,,,,,2b,3,4,5,,,,,
{8}8,8,8-4[8:1],8,8,,2b/6b,,
{8}1,1,2,2,8,8,7,7,
{8}1-5[8:1],5-3[8:1],1,7,8-2[8:1],2-6[8:1],8,3,
{8}4,4,5,5,3,3,6,6,
{8}2,,1b,1,2b/8b,2/8,3b/7b,3/7,
{8}5-3[8:1],3-7[8:1],5,1,2-8[8:1],8-4[8:1],2,7,
{8}6,6,2,2,8,8,4,4,
{8}5-1[8:1],5,2-5[8:1],2,7-4[8:1],7,3-8[8:1],3,
{8}7-3[8:1],7,1-5[8:1],1,6-8[8:1],6,4,4,
{16}7,6,5,4,1,2,3,4,7,6,5,4,1,2,3,4,
{16}8,2,8,2,8,2,8,2,7,3,7,3,7,3,7,3,
{16}6,7,8,1,4,3,2,1,6,7,8,1,4,3,2,1,
{16}6b,2,6,2,7b,3,7,3,8b,4,8,4,1b,5,1,5,
{16}1,2,3,4,5/1,6,7,8,1/5,2,3,4,5/1,6,7,8,
{32}1/5,4,3,2,1,8,7,6,5,4,3,2,1,8,7,6,5,4,3,2,1,8,7,6,5,4,3,2,1,8,7,6,
{8}5b,5b-1[8:1],,5b,,2b,2b,,
{8}8h[4:1],,{12}3,4,5,3,4,5,3,4,5,
{8}3s7[4:2],,,,,,,,
{8},,{32}1,2,3,4,5,6,7,8,1,2,3,4,5,6,7,8,1,2,3,4,5,6,7,8,
{24}1,2,3,4,5,6,7,8,1,2,3,4,5,6,7,8,1,2,3,4,5,6,7,8,
{16}1,2,3,4,5,6,7,8,{8}1,2,3-7[8:1],4,3b/5b,,,,
{8},,,,,,,,
